  0
SECTION
  2
HEADER
  9
$ACADVER
  1
AC1009
  9
$DWGCODEPAGE
  3
ansi_1252
  9
$INSBASE
 10
0.0
 20
0.0
 30
0.0
  9
$EXTMIN
 10
-94.42256567720506
 20
-5023.842082740955
 30
0.0
  9
$EXTMAX
 10
17136.74675607179
 20
2125.0
 30
0.0
  9
$LIMMIN
 10
0.0
 20
0.0
  9
$LIMMAX
 10
420.0
 20
297.0
  9
$ORTHOMODE
 70
     0
  9
$REGENMODE
 70
     1
  9
$FILLMODE
 70
     1
  9
$QTEXTMODE
 70
     0
  9
$MIRRTEXT
 70
     0
  9
$DRAGMODE
 70
     2
  9
$LTSCALE
 40
1.0
  9
$OSMODE
 70
    37
  9
$ATTMODE
 70
     1
  9
$TEXTSIZE
 40
100.0
  9
$TRACEWID
 40
1.0
  9
$TEXTSTYLE
  7
STANDARD
  9
$CLAYER
  8
0
  9
$CELTYPE
  6
BYLAYER
  9
$CECOLOR
 62
   256
  9
$DIMSCALE
 40
1.0
  9
$DIMASZ
 40
2.5
  9
$DIMEXO
 40
0.625
  9
$DIMDLI
 40
3.75
  9
$DIMRND
 40
0.0
  9
$DIMDLE
 40
0.0
  9
$DIMEXE
 40
1.25
  9
$DIMTP
 40
0.0
  9
$DIMTM
 40
0.0
  9
$DIMTXT
 40
2.5
  9
$DIMCEN
 40
2.5
  9
$DIMTSZ
 40
0.0
  9
$DIMTOL
 70
     0
  9
$DIMLIM
 70
     0
  9
$DIMTIH
 70
     0
  9
$DIMTOH
 70
     0
  9
$DIMSE1
 70
     0
  9
$DIMSE2
 70
     0
  9
$DIMTAD
 70
     1
  9
$DIMZIN
 70
     8
  9
$DIMBLK
  1

  9
$DIMASO
 70
     1
  9
$DIMSHO
 70
     1
  9
$DIMPOST
  1

  9
$DIMAPOST
  1

  9
$DIMALT
 70
     0
  9
$DIMALTD
 70
     3
  9
$DIMALTF
 40
0.03937007874016
  9
$DIMLFAC
 40
1.0
  9
$DIMTOFL
 70
     1
  9
$DIMTVP
 40
0.0
  9
$DIMTIX
 70
     0
  9
$DIMSOXD
 70
     0
  9
$DIMSAH
 70
     0
  9
$DIMBLK1
  1

  9
$DIMBLK2
  1

  9
$DIMSTYLE
  2
ISO-25
  9
$DIMCLRD
 70
     0
  9
$DIMCLRE
 70
     0
  9
$DIMCLRT
 70
     0
  9
$DIMTFAC
 40
1.0
  9
$DIMGAP
 40
0.625
  9
$LUNITS
 70
     2
  9
$LUPREC
 70
     4
  9
$SKETCHINC
 40
1.0
  9
$FILLETRAD
 40
0.0
  9
$AUNITS
 70
     0
  9
$AUPREC
 70
     0
  9
$MENU
  1
.
  9
$ELEVATION
 40
0.0
  9
$PELEVATION
 40
0.0
  9
$THICKNESS
 40
0.0
  9
$LIMCHECK
 70
     0
  9
$CHAMFERA
 40
0.0
  9
$CHAMFERB
 40
0.0
  9
$SKPOLY
 70
     0
  9
$TDCREATE
 40
2453353.758792488
  9
$TDUPDATE
 40
2457460.112525926
  9
$TDINDWG
 40
4881704.058228148
  9
$TDUSRTIMER
 40
4881704.058228148
  9
$USRTIMER
 70
     1
  9
$ANGBASE
 50
0.0
  9
$ANGDIR
 70
     0
  9
$PDMODE
 70
     0
  9
$PDSIZE
 40
0.0
  9
$PLINEWID
 40
9.0
  9
$COORDS
 70
     1
  9
$SPLFRAME
 70
     0
  9
$SPLINETYPE
 70
     6
  9
$SPLINESEGS
 70
     8
  9
$ATTDIA
 70
     0
  9
$ATTREQ
 70
     1
  9
$HANDLING
 70
     1
  9
$HANDSEED
  5
B1538
  9
$SURFTAB1
 70
     6
  9
$SURFTAB2
 70
     6
  9
$SURFTYPE
 70
     6
  9
$SURFU
 70
     6
  9
$SURFV
 70
     6
  9
$UCSNAME
  2

  9
$UCSORG
 10
0.0
 20
0.0
 30
0.0
  9
$UCSXDIR
 10
1.0
 20
0.0
 30
0.0
  9
$UCSYDIR
 10
0.0
 20
1.0
 30
0.0
  9
$PUCSNAME
  2

  9
$PUCSORG
 10
0.0
 20
0.0
 30
0.0
  9
$PUCSXDIR
 10
1.0
 20
0.0
 30
0.0
  9
$PUCSYDIR
 10
0.0
 20
1.0
 30
0.0
  9
$USERI1
 70
     0
  9
$USERI2
 70
     0
  9
$USERI3
 70
     0
  9
$USERI4
 70
     0
  9
$USERI5
 70
     0
  9
$USERR1
 40
0.0
  9
$USERR2
 40
0.0
  9
$USERR3
 40
0.0
  9
$USERR4
 40
0.0
  9
$USERR5
 40
0.0
  9
$WORLDVIEW
 70
     1
  9
$SHADEDGE
 70
     3
  9
$SHADEDIF
 70
    70
  9
$TILEMODE
 70
     1
  9
$MAXACTVP
 70
    64
  9
$PLIMCHECK
 70
     0
  9
$PEXTMIN
 10
1.000000000000000E+20
 20
1.000000000000000E+20
 30
1.000000000000000E+20
  9
$PEXTMAX
 10
-1.000000000000000E+20
 20
-1.000000000000000E+20
 30
-1.000000000000000E+20
  9
$PLIMMIN
 10
0.0
 20
0.0
  9
$PLIMMAX
 10
420.0
 20
297.0
  9
$UNITMODE
 70
     0
  9
$VISRETAIN
 70
     1
  9
$PLINEGEN
 70
     0
  9
$PSLTSCALE
 70
     1
  0
ENDSEC
  0
SECTION
  2
TABLES
  0
TABLE
  2
VPORT
 70
     1
  0
VPORT
  2
*ACTIVE
 70
     0
 10
0.0
 20
0.0
 11
1.0
 21
1.0
 12
6538.012296954669
 22
-2489.457610003989
 13
0.0
 23
0.0
 14
10.0
 24
10.0
 15
10.0
 25
10.0
 16
0.0
 26
0.0
 36
1.0
 17
0.0
 27
0.0
 37
0.0
 40
13030.36707453737
 41
1.664827586206896
 42
50.0
 43
0.0
 44
0.0
 50
0.0
 51
0.0
 71
    16
 72
  1000
 73
     1
 74
     1
 75
     0
 76
     0
 77
     0
 78
     0
  0
ENDTAB
  0
TABLE
  2
LTYPE
 70
     1
  0
LTYPE
  2
CONTINUOUS
 70
     0
  3
Solid line
 72
    65
 73
     0
 40
0.0
  0
ENDTAB
  0
TABLE
  2
LAYER
 70
     4
  0
LAYER
  2
0
 70
     0
 62
     7
  6
CONTINUOUS
  0
LAYER
  2
BEDIENRAUM
 70
     0
 62
     2
  6
CONTINUOUS
  0
LAYER
  2
INFO
 70
     0
 62
     3
  6
CONTINUOUS
  0
LAYER
  2
DEFPOINTS
 70
     0
 62
     7
  6
CONTINUOUS
  0
ENDTAB
  0
TABLE
  2
STYLE
 70
     1
  0
STYLE
  2
STANDARD
 70
     0
 40
0.0
 41
1.0
 50
0.0
 71
     0
 42
2.5
  3
txt
  4

  0
ENDTAB
  0
TABLE
  2
VIEW
 70
     0
  0
ENDTAB
  0
TABLE
  2
UCS
 70
     0
  0
ENDTAB
  0
TABLE
  2
APPID
 70
     8
  0
APPID
  2
ACAD
 70
     0
  0
APPID
  2
ACAECLAYERSTANDARD
 70
     0
  0
APPID
  2
ACAD_PSEXT
 70
     0
  0
APPID
  2
RAK
 70
     0
  0
APPID
  2
CONTENTTABDATA
 70
     0
  0
APPID
  2
CONTENTCURRENTTAB
 70
     0
  0
APPID
  2
PROGE_PRINT_SETTINGS
 70
     0
  0
APPID
  2
ACAD_DSTYLE_DIMTEXT_FILL
 70
     0
  0
ENDTAB
  0
TABLE
  2
DIMSTYLE
 70
     2
  0
DIMSTYLE
  2
STANDARD
 70
     0
  3

  4

  5

  6

  7

 40
1.0
 41
0.18
 42
0.0625
 43
0.38
 44
0.18
 45
0.0
 46
0.0
 47
0.0
 48
0.0
140
0.18
141
0.09
142
0.0
143
25.4
144
1.0
145
0.0
146
1.0
147
0.09
 71
     0
 72
     0
 73
     1
 74
     1
 75
     0
 76
     0
 77
     0
 78
     0
170
     0
171
     2
172
     0
173
     0
174
     0
175
     0
176
     0
177
     0
178
     0
  0
DIMSTYLE
  2
ISO-25
 70
     0
  3

  4

  5

  6

  7

 40
1.0
 41
2.5
 42
0.625
 43
3.75
 44
1.25
 45
0.0
 46
0.0
 47
0.0
 48
0.0
140
2.5
141
2.5
142
0.0
143
0.03937007874016
144
1.0
145
0.0
146
1.0
147
0.625
 71
     0
 72
     0
 73
     0
 74
     0
 75
     0
 76
     0
 77
     1
 78
     8
170
     0
171
     3
172
     1
173
     0
174
     0
175
     0
176
     0
177
     0
178
     0
  0
ENDTAB
  0
ENDSEC
  0
SECTION
  2
BLOCKS
  0
BLOCK
  8
0
  2
$MODEL_SPACE
 70
     0
 10
0.0
 20
0.0
 30
0.0
  3
$MODEL_SPACE
  1

  0
ENDBLK
  5
21
  8
0
  0
BLOCK
 67
     1
  8
0
  2
$PAPER_SPACE
 70
     0
 10
0.0
 20
0.0
 30
0.0
  3
$PAPER_SPACE
  1

  0
ENDBLK
  5
76
 67
     1
  8
0
  0
BLOCK
  8
0
  2
*D1
 70
     1
 10
0.0
 20
0.0
 30
0.0
  3
*D1
  1

  0
LINE
  5
AFF0A
  8
0
  6
BYBLOCK
 62
     0
 10
9542.282848582863
 20
9399.917861406275
 30
0.0
 11
9542.282848582863
 21
5692.078205487195
 31
0.0
  0
LINE
  5
AFF0B
  8
0
  6
BYBLOCK
 62
     0
 10
25319.01480390665
 20
6017.993363337083
 30
0.0
 11
25319.01480390665
 21
5692.078205487195
 31
0.0
  0
LINE
  5
AFF0C
  8
0
  6
BYBLOCK
 62
     0
 10
9742.282848582863
 20
5693.328205487195
 30
0.0
 11
25119.01480390665
 21
5693.328205487195
 31
0.0
  0
SOLID
  5
AFF0D
  8
0
  6
BYBLOCK
 62
     0
 10
9542.282848582863
 20
5693.328205487195
 30
0.0
 11
9742.282848582863
 21
5659.994872153855
 31
0.0
 12
9742.282848582863
 22
5726.661538820536
 32
0.0
 13
9742.282848582863
 23
5726.661538820536
 33
0.0
  0
SOLID
  5
AFF0E
  8
0
  6
BYBLOCK
 62
     0
 10
25319.01480390665
 20
5693.328205487195
 30
0.0
 11
25119.01480390665
 21
5659.994872153855
 31
0.0
 12
25119.01480390665
 22
5726.661538820536
 32
0.0
 13
25119.01480390665
 23
5726.661538820536
 33
0.0
  0
TEXT
  5
AFF0F
  8
0
  6
BYBLOCK
 62
     0
 10
16996.64882624476
 20
5693.953205487195
 30
0.0
 40
200.0
  1
15777
  0
ENDBLK
  5
B14E8
  8
INFO
  0
BLOCK
  8
0
  2
*D2
 70
     1
 10
0.0
 20
0.0
 30
0.0
  3
*D2
  1

  0
LINE
  5
AFF16
  8
0
  6
BYBLOCK
 62
     0
 10
19412.33041426007
 20
10742.17028822815
 30
0.0
 11
25751.6855152986
 21
10742.17028822815
 31
0.0
  0
LINE
  5
AFF17
  8
0
  6
BYBLOCK
 62
     0
 10
25319.63980390665
 20
6018.618363337083
 30
0.0
 11
25751.6855152986
 21
6018.618363337083
 31
0.0
  0
LINE
  5
AFF18
  8
0
  6
BYBLOCK
 62
     0
 10
25750.4355152986
 20
10542.17028822815
 30
0.0
 11
25750.4355152986
 21
6218.618363337083
 31
0.0
  0
SOLID
  5
AFF19
  8
0
  6
BYBLOCK
 62
     0
 10
25750.4355152986
 20
10742.17028822815
 30
0.0
 11
25717.10218196526
 21
10542.17028822815
 31
0.0
 12
25783.76884863194
 22
10542.17028822815
 32
0.0
 13
25783.76884863194
 23
10542.17028822815
 33
0.0
  0
SOLID
  5
AFF1A
  8
0
  6
BYBLOCK
 62
     0
 10
25750.4355152986
 20
6018.618363337083
 30
0.0
 11
25717.10218196526
 21
6218.618363337083
 31
0.0
 12
25783.76884863194
 22
6218.618363337083
 32
0.0
 13
25783.76884863194
 23
6218.618363337083
 33
0.0
  0
TEXT
  5
AFF1B
  8
0
  6
BYBLOCK
 62
     0
 10
25749.8105152986
 20
8013.394325782619
 30
0.0
 40
200.0
  1
4724
 50
90.0
  0
ENDBLK
  5
B14EA
  8
INFO
  0
BLOCK
  8
0
  2
*D3
 70
     1
 10
0.0
 20
0.0
 30
0.0
  3
*D3
  1

  0
TEXT
  5
AFF49
  8
0
  6
BYBLOCK
 62
     0
 10
10601.7084346908
 20
9200.55627721143
 30
0.0
 40
200.0
  1
31\U+00B0
 50
15.7058387242898
  0
SOLID
  5
AFF4E
  8
0
  6
BYBLOCK
 62
     0
 10
11411.70541426007
 20
9238.609129037986
 30
0.0
 11
11213.4452182351
 21
9196.135539794179
 31
0.0
 12
11210.38676745467
 22
9262.732013599254
 32
0.0
 13
11210.38676745467
 23
9262.732013599254
 33
0.0
  0
SOLID
  5
AFF4F
  8
0
  6
BYBLOCK
 62
     0
 10
10275.65403713977
 20
8919.154568744249
 30
0.0
 11
10434.8958962368
 21
9044.666087826885
 31
0.0
 12
10466.9946667989
 22
8986.235673034178
 32
0.0
 13
10466.9946667989
 23
8986.235673034178
 33
0.0
  0
LINE
  5
AFF50
  8
0
  6
BYBLOCK
 62
     0
 10
11411.70541426007
 20
9741.54528822815
 30
0.0
 11
11411.70541426007
 21
9237.359129037986
 31
0.0
  0
LINE
  5
AFF51
  8
0
  6
BYBLOCK
 62
     0
 10
10123.24210212416
 20
9168.731005907597
 30
0.0
 11
10276.3055166187
 21
8918.087763003481
 31
0.0
  0
ARC
  5
AFF52
  8
0
  6
BYBLOCK
 62
     0
 10
11411.70541426007
 20
7058.856324337307
 30
0.0
 40
2179.752804700679
 50
95.25893547523981
 51
116.1527419733399
  0
ENDBLK
  5
B14EC
  8
0
  0
BLOCK
  8
0
  2
*D4
 70
     1
 10
0.0
 20
0.0
 30
0.0
  3
*D4
  1

  0
LINE
  5
B11F5
  8
INFO
 62
     0
 10
-94.42256567720506
 20
-1216.689926821875
 30
0.0
 11
-94.42256567720506
 21
-4924.022082740954
 31
0.0
  0
LINE
  5
B11F6
  8
INFO
 62
     0
 10
15682.30938964658
 20
-4598.614424891067
 30
0.0
 11
15682.30938964658
 21
-4924.022082740955
 31
0.0
  0
LINE
  5
B11F7
  8
INFO
 62
     0
 10
105.5774343227949
 20
-4923.842082740954
 30
0.0
 11
7359.853411984687
 21
-4923.842082740954
 31
0.0
  0
LINE
  5
B11F8
  8
INFO
 62
     0
 10
15482.30938964658
 20
-4923.842082740955
 30
0.0
 11
8228.033411984688
 21
-4923.842082740955
 31
0.0
  0
SOLID
  5
B11F9
  8
INFO
 62
     0
 10
105.5774343227949
 20
-4890.508749407621
 30
0.0
 11
105.5774343227949
 21
-4957.175416074287
 31
0.0
 12
-94.42256567720506
 22
-4923.842082740954
 32
0.0
 13
-94.42256567720506
 23
-4923.842082740954
 33
0.0
  0
SOLID
  5
B11FA
  8
INFO
 62
     0
 10
15482.30938964658
 20
-4957.175416074288
 30
0.0
 11
15482.30938964658
 21
-4890.508749407622
 31
0.0
 12
15682.30938964658
 22
-4923.842082740955
 32
0.0
 13
15682.30938964658
 23
-4923.842082740955
 33
0.0
  0
TEXT
  5
B11FB
  8
INFO
 62
     0
 10
7359.943411984687
 20
-5023.842082740954
 30
0.0
 40
200.0
  1
15777
  0
POINT
  5
B11FC
  8
DEFPOINTS
 62
     0
 10
-94.42256567720506
 20
-1216.627426821875
 30
0.0
  0
POINT
  5
B1284
  8
DEFPOINTS
 62
     0
 10
15682.30938964658
 20
-4598.551924891067
 30
0.0
  0
POINT
  5
B1285
  8
DEFPOINTS
 62
     0
 10
15682.30938964658
 20
-4923.842082740955
 30
0.0
  0
ENDBLK
  5
B14EE
  8
0
  0
BLOCK
  8
0
  2
*D5
 70
     1
 10
0.0
 20
0.0
 30
0.0
  3
*D5
  1

  0
LINE
  5
B1200
  8
INFO
 62
     0
 10
9775.0625
 20
125.0
 30
0.0
 11
16113.91010103854
 21
125.0
 31
0.0
  0
LINE
  5
B1201
  8
INFO
 62
     0
 10
15682.37188964658
 20
-4598.551924891067
 30
0.0
 11
16113.91010103854
 21
-4598.551924891067
 31
0.0
  0
LINE
  5
B1202
  8
INFO
 62
     0
 10
16113.73010103853
 20
-74.99999999999959
 30
0.0
 11
16113.73010103853
 21
-1869.685962445532
 31
0.0
  0
LINE
  5
B1203
  8
INFO
 62
     0
 10
16113.73010103853
 20
-4398.551924891066
 30
0.0
 11
16113.73010103853
 21
-2603.865962445532
 31
0.0
  0
SOLID
  5
B1204
  8
INFO
 62
     0
 10
16147.06343437187
 20
-74.99999999999959
 30
0.0
 11
16080.3967677052
 21
-74.99999999999959
 31
0.0
 12
16113.73010103853
 22
125.0000000000004
 32
0.0
 13
16113.73010103853
 23
125.0000000000004
 33
0.0
  0
SOLID
  5
B1205
  8
INFO
 62
     0
 10
16080.3967677052
 20
-4398.551924891066
 30
0.0
 11
16147.06343437187
 21
-4398.551924891066
 31
0.0
 12
16113.73010103853
 22
-4598.551924891066
 32
0.0
 13
16113.73010103853
 23
-4598.551924891066
 33
0.0
  0
TEXT
  5
B1206
  8
INFO
 62
     0
 10
16213.73010103853
 20
-2603.775962445532
 30
0.0
 40
200.0
  1
4724
 50
90.0
  0
POINT
  5
B1207
  8
DEFPOINTS
 62
     0
 10
9775.0
 20
125.0
 30
0.0
  0
POINT
  5
B1286
  8
DEFPOINTS
 62
     0
 10
15682.30938964658
 20
-4598.551924891067
 30
0.0
  0
POINT
  5
B1287
  8
DEFPOINTS
 62
     0
 10
16113.73010103853
 20
-4598.551924891067
 30
0.0
  0
ENDBLK
  5
B14F0
  8
0
  0
BLOCK
  8
0
  2
*D6
 70
     1
 10
0.0
 20
0.0
 30
0.0
  3
*D6
  1

  0
LINE
  5
B120B
  8
INFO
 62
     0
 10
486.2435220985726
 20
-1447.959219737207
 30
0.0
 11
639.0424359246649
 21
-1698.169339510573
 31
0.0
  0
LINE
  5
B120C
  8
INFO
 62
     0
 10
1775.0
 20
-875.0625
 30
0.0
 11
1775.0
 21
-1378.741159190164
 31
0.0
  0
ARC
  5
B120D
  8
INFO
 62
     0
 10
1775.0
 20
-3558.313963890842
 30
0.0
 40
2179.752804700679
 50
90.00473138068878
 51
105.6984665347913
  0
ARC
  5
B120E
  8
INFO
 62
     0
 10
1775.0
 20
-3558.313963890842
 30
0.0
 40
2179.752804700679
 50
105.713211180534
 51
121.4069460678909
  0
SOLID
  5
B120F
  8
INFO
 62
     0
 10
1774.820001238826
 20
-1378.591166622174
 30
0.0
 11
1774.819998761481
 21
-1378.531166622225
 31
0.0
 12
1775.0
 22
-1378.561159190164
 32
0.0
 13
1775.0
 23
-1378.561159190164
 33
0.0
  0
SOLID
  5
B1210
  8
INFO
 62
     0
 10
639.0866123293508
 20
-1697.896308798515
 30
0.0
 11
639.1178812300359
 21
-1697.94751676518
 31
0.0
 12
638.9486228796989
 22
-1698.015719483903
 32
0.0
 13
638.9486228796989
 23
-1698.015719483903
 33
0.0
  0
TEXT
  5
B1211
  8
INFO
 62
     0
 10
1184.764081558917
 20
-1460.03404828656
 30
0.0
 40
0.18
  1
31\U+00B0
  0
POINT
  5
B1212
  8
DEFPOINTS
 62
     0
 10
946.440056099078
 20
-1542.176391956979
 30
0.0
  0
POINT
  5
B1213
  8
DEFPOINTS
 62
     0
 10
486.2109481246262
 20
-1447.905879450169
 30
0.0
  0
POINT
  5
B1214
  8
DEFPOINTS
 62
     0
 10
1775.0
 20
-500.0
 30
0.0
  0
POINT
  5
B1215
  8
DEFPOINTS
 62
     0
 10
1775.0
 20
-875.0
 30
0.0
  0
POINT
  5
B1216
  8
DEFPOINTS
 62
     0
 10
225.6191565530353
 20
-1021.183583143182
 30
0.0
  0
ENDBLK
  5
B14F2
  8
0
  0
BLOCK
  8
0
  2
*D7
 70
     1
 10
0.0
 20
0.0
 30
0.0
  3
*D7
  1

  0
POINT
  5
B12D1
  8
DEFPOINTS
  6
BYBLOCK
 62
     0
 10
-94.42256567720506
 20
-1216.627426821875
 30
0.0
  0
POINT
  5
B12D2
  8
DEFPOINTS
  6
BYBLOCK
 62
     0
 10
15682.30938964658
 20
-4598.551924891067
 30
0.0
  0
LINE
  5
B12D3
  8
0
  6
BYBLOCK
 62
     0
 10
-94.42256567720506
 20
-1216.689926821875
 30
0.0
 11
-94.42256567720506
 21
-4924.022082740954
 31
0.0
  0
LINE
  5
B12D4
  8
0
  6
BYBLOCK
 62
     0
 10
15682.30938964658
 20
-4598.614424891067
 30
0.0
 11
15682.30938964658
 21
-4924.022082740954
 31
0.0
  0
LINE
  5
B12D5
  8
0
  6
BYBLOCK
 62
     0
 10
105.5774343227949
 20
-4923.842082740955
 30
0.0
 11
7359.853411984687
 21
-4923.842082740955
 31
0.0
  0
SOLID
  5
B12D6
  8
0
  6
BYBLOCK
 62
     0
 10
-94.42256567720506
 20
-4923.842082740955
 30
0.0
 11
105.5774343227949
 21
-4957.175416074295
 31
0.0
 12
105.5774343227949
 22
-4890.508749407614
 32
0.0
 13
105.5774343227949
 23
-4890.508749407614
 33
0.0
  0
LINE
  5
B12D7
  8
0
  6
BYBLOCK
 62
     0
 10
15482.30938964658
 20
-4923.842082740955
 30
0.0
 11
8228.033411984688
 21
-4923.842082740955
 31
0.0
  0
SOLID
  5
B12D8
  8
0
  6
BYBLOCK
 62
     0
 10
15682.30938964658
 20
-4923.842082740955
 30
0.0
 11
15482.30938964658
 21
-4957.175416074295
 31
0.0
 12
15482.30938964658
 22
-4890.508749407614
 32
0.0
 13
15482.30938964658
 23
-4890.508749407614
 33
0.0
  0
TEXT
  5
B12D9
  8
0
  6
BYBLOCK
 62
     0
 10
7359.943411984687
 20
-5023.842082740955
 30
0.0
 40
200.0
  1
15777
  0
ENDBLK
  5
B14F4
  8
0
  0
BLOCK
  8
0
  2
*D8
 70
     1
 10
0.0
 20
0.0
 30
0.0
  3
*D8
  1

  0
POINT
  5
B12DE
  8
DEFPOINTS
  6
BYBLOCK
 62
     0
 10
9775.0
 20
125.0
 30
0.0
  0
POINT
  5
B12DF
  8
DEFPOINTS
  6
BYBLOCK
 62
     0
 10
15682.30938964658
 20
-4598.551924891067
 30
0.0
  0
LINE
  5
B12E0
  8
0
  6
BYBLOCK
 62
     0
 10
9775.0625
 20
125.0
 30
0.0
 11
16113.91010103854
 21
125.0
 31
0.0
  0
LINE
  5
B12E1
  8
0
  6
BYBLOCK
 62
     0
 10
15682.37188964658
 20
-4598.551924891067
 30
0.0
 11
16113.91010103854
 21
-4598.551924891067
 31
0.0
  0
LINE
  5
B12E2
  8
0
  6
BYBLOCK
 62
     0
 10
16113.73010103853
 20
-75.0
 30
0.0
 11
16113.73010103853
 21
-2136.685962445533
 31
0.0
  0
SOLID
  5
B12E3
  8
0
  6
BYBLOCK
 62
     0
 10
16113.73010103853
 20
125.0
 30
0.0
 11
16080.3967677052
 21
-75.0
 31
0.0
 12
16147.06343437187
 22
-75.0
 32
0.0
 13
16147.06343437187
 23
-75.0
 33
0.0
  0
LINE
  5
B12E4
  8
0
  6
BYBLOCK
 62
     0
 10
16113.73010103853
 20
-4398.551924891067
 30
0.0
 11
16113.73010103853
 21
-2336.865962445534
 31
0.0
  0
SOLID
  5
B12E5
  8
0
  6
BYBLOCK
 62
     0
 10
16113.73010103853
 20
-4598.551924891067
 30
0.0
 11
16080.3967677052
 21
-4398.551924891067
 31
0.0
 12
16147.06343437187
 22
-4398.551924891067
 32
0.0
 13
16147.06343437187
 23
-4398.551924891067
 33
0.0
  0
TEXT
  5
B12E6
  8
0
  6
BYBLOCK
 62
     0
 10
16213.73010103853
 20
-2603.775962445532
 30
0.0
 40
200.0
  1
4724
 50
90.0
  0
ENDBLK
  5
B14F6
  8
0
  0
BLOCK
  8
0
  2
*D9
 70
     1
 10
0.0
 20
0.0
 30
0.0
  3
*D9
  1

  0
TEXT
  5
B12EF
  8
0
  6
BYBLOCK
 62
     0
 10
1184.764081558917
 20
-1460.03404828656
 30
0.0
 40
0.18
  1
31\U+00B0
  0
POINT
  5
B12F0
  8
DEFPOINTS
  6
BYBLOCK
 62
     0
 10
225.6191565530353
 20
-1021.183583143182
 30
0.0
  0
POINT
  5
B12F1
  8
DEFPOINTS
  6
BYBLOCK
 62
     0
 10
1775.0
 20
-500.0
 30
0.0
  0
POINT
  5
B12F2
  8
DEFPOINTS
  6
BYBLOCK
 62
     0
 10
1775.0
 20
-875.0
 30
0.0
  0
POINT
  5
B12F3
  8
DEFPOINTS
  6
BYBLOCK
 62
     0
 10
486.2109481246262
 20
-1447.905879450169
 30
0.0
  0
SOLID
  5
B12F4
  8
0
  6
BYBLOCK
 62
     0
 10
1775.0
 20
-1378.561159190163
 30
0.0
 11
1774.820001238826
 21
-1378.591166622173
 31
0.0
 12
1774.819998761481
 22
-1378.531166622224
 32
0.0
 13
1774.819998761481
 23
-1378.531166622224
 33
0.0
  0
SOLID
  5
B12F5
  8
0
  6
BYBLOCK
 62
     0
 10
638.9486228796997
 20
-1698.015719483902
 30
0.0
 11
639.0866123293515
 21
-1697.896308798514
 31
0.0
 12
639.1178812300367
 22
-1697.947516765179
 32
0.0
 13
639.1178812300367
 23
-1697.947516765179
 33
0.0
  0
LINE
  5
B12F6
  8
0
  6
BYBLOCK
 62
     0
 10
1775.0
 20
-875.0625
 30
0.0
 11
1775.0
 21
-1378.741159190163
 31
0.0
  0
LINE
  5
B12F7
  8
0
  6
BYBLOCK
 62
     0
 10
486.2435220985726
 20
-1447.959219737207
 30
0.0
 11
639.0424359246654
 21
-1698.169339510572
 31
0.0
  0
ARC
  5
B12F8
  8
0
  6
BYBLOCK
 62
     0
 10
1775.0
 20
-3558.313963890842
 30
0.0
 40
2179.752804700679
 50
90.00473138068368
 51
105.6984665347913
  0
ARC
  5
B12F9
  8
0
  6
BYBLOCK
 62
     0
 10
1775.0
 20
-3558.313963890842
 30
0.0
 40
2179.752804700679
 50
105.713211180534
 51
121.406946067896
  0
ENDBLK
  5
B14F8
  8
0
  0
BLOCK
  8
0
  2
*D10
 70
     1
 10
0.0
 20
0.0
 30
0.0
  3
*D10
  1

  0
TEXT
  5
B12FE
  8
0
  6
BYBLOCK
 62
     0
 10
884.9440815589173
 20
-1609.944048286559
 30
0.0
 40
300.0
  1
31\U+00B0
  0
POINT
  5
B12FF
  8
DEFPOINTS
  6
BYBLOCK
 62
     0
 10
225.6191565530353
 20
-1021.183583143182
 30
0.0
  0
POINT
  5
B1300
  8
DEFPOINTS
  6
BYBLOCK
 62
     0
 10
1775.0
 20
-500.0
 30
0.0
  0
POINT
  5
B1301
  8
DEFPOINTS
  6
BYBLOCK
 62
     0
 10
1775.0
 20
-875.0
 30
0.0
  0
POINT
  5
B1302
  8
DEFPOINTS
  6
BYBLOCK
 62
     0
 10
486.2109481246262
 20
-1447.905879450169
 30
0.0
  0
SOLID
  5
B1303
  8
0
  6
BYBLOCK
 62
     0
 10
1775.0
 20
-1378.561159190163
 30
0.0
 11
1479.151928646348
 21
-1449.087173371636
 31
0.0
 12
1472.270414390394
 22
-1349.324230544406
 32
0.0
 13
1472.270414390394
 23
-1349.324230544406
 33
0.0
  0
SOLID
  5
B1304
  8
0
  6
BYBLOCK
 62
     0
 10
638.9486228796997
 20
-1698.015719483902
 30
0.0
 11
882.07374351079
 21
-1515.285930675074
 31
0.0
 12
928.1955603876543
 22
-1604.014607031599
 32
0.0
 13
928.1955603876543
 23
-1604.014607031599
 33
0.0
  0
LINE
  5
B1305
  8
0
  6
BYBLOCK
 62
     0
 10
1775.0
 20
-875.0625
 30
0.0
 11
1775.0
 21
-1378.741159190163
 31
0.0
  0
LINE
  5
B1306
  8
0
  6
BYBLOCK
 62
     0
 10
486.2435220985726
 20
-1447.959219737207
 30
0.0
 11
639.0424359246654
 21
-1698.169339510572
 31
0.0
  0
ARC
  5
B1307
  8
0
  6
BYBLOCK
 62
     0
 10
1775.0
 20
-3558.313963890842
 30
0.0
 40
2179.752804700679
 50
97.891871539116
 51
114.1024894514733
  0
ARC
  5
B1308
  8
0
  6
BYBLOCK
 62
     0
 10
1775.0
 20
-3558.313963890842
 30
0.0
 40
2179.752804700679
 50
97.64454475994614
 51
113.5198059094637
  0
ENDBLK
  5
B14FA
  8
0
  0
BLOCK
  8
0
  2
*D11
 70
     1
 10
0.0
 20
0.0
 30
0.0
  3
*D11
  1

  0
TEXT
  5
B130C
  8
0
  6
BYBLOCK
 62
     0
 10
884.9440815589173
 20
-1609.944048286559
 30
0.0
 40
300.0
  1
31\U+00B0
  0
POINT
  5
B130D
  8
DEFPOINTS
  6
BYBLOCK
 62
     0
 10
225.6191565530353
 20
-1021.183583143182
 30
0.0
  0
POINT
  5
B130E
  8
DEFPOINTS
  6
BYBLOCK
 62
     0
 10
1775.0
 20
-500.0
 30
0.0
  0
POINT
  5
B130F
  8
DEFPOINTS
  6
BYBLOCK
 62
     0
 10
1775.0
 20
-875.0
 30
0.0
  0
POINT
  5
B1310
  8
DEFPOINTS
  6
BYBLOCK
 62
     0
 10
486.2109481246262
 20
-1447.905879450169
 30
0.0
  0
SOLID
  5
B1311
  8
0
  6
BYBLOCK
 62
     0
 10
1775.0
 20
-1378.561159190163
 30
0.0
 11
1479.151928646348
 21
-1449.087173371636
 31
0.0
 12
1472.270414390394
 22
-1349.324230544406
 32
0.0
 13
1472.270414390394
 23
-1349.324230544406
 33
0.0
  0
SOLID
  5
B1312
  8
0
  6
BYBLOCK
 62
     0
 10
638.9486228796997
 20
-1698.015719483902
 30
0.0
 11
882.07374351079
 21
-1515.285930675074
 31
0.0
 12
928.1955603876543
 22
-1604.014607031599
 32
0.0
 13
928.1955603876543
 23
-1604.014607031599
 33
0.0
  0
LINE
  5
B1313
  8
0
  6
BYBLOCK
 62
     0
 10
1775.0
 20
-875.0625
 30
0.0
 11
1775.0
 21
-1378.741159190163
 31
0.0
  0
LINE
  5
B1314
  8
0
  6
BYBLOCK
 62
     0
 10
486.2435220985726
 20
-1447.959219737207
 30
0.0
 11
639.0424359246654
 21
-1698.169339510572
 31
0.0
  0
ARC
  5
B1315
  8
0
  6
BYBLOCK
 62
     0
 10
1775.0
 20
-3558.313963890842
 30
0.0
 40
2179.752804700679
 50
97.891871539116
 51
114.1024894514733
  0
ARC
  5
B1316
  8
0
  6
BYBLOCK
 62
     0
 10
1775.0
 20
-3558.313963890842
 30
0.0
 40
2179.752804700679
 50
97.64454475994614
 51
113.5198059094637
  0
ENDBLK
  5
B14FC
  8
0
  0
BLOCK
  8
0
  2
*D12
 70
     1
 10
0.0
 20
0.0
 30
0.0
  3
*D12
  1

  0
POINT
  5
B131A
  8
DEFPOINTS
  6
BYBLOCK
 62
     0
 10
-94.42256567720506
 20
-1216.627426821875
 30
0.0
  0
POINT
  5
B131B
  8
DEFPOINTS
  6
BYBLOCK
 62
     0
 10
15682.30938964658
 20
-4598.551924891067
 30
0.0
  0
LINE
  5
B131C
  8
0
  6
BYBLOCK
 62
     0
 10
-94.42256567720506
 20
-1216.689926821875
 30
0.0
 11
-94.42256567720506
 21
-4924.022082740954
 31
0.0
  0
LINE
  5
B131D
  8
0
  6
BYBLOCK
 62
     0
 10
15682.30938964658
 20
-4598.614424891067
 30
0.0
 11
15682.30938964658
 21
-4924.022082740954
 31
0.0
  0
LINE
  5
B131E
  8
0
  6
BYBLOCK
 62
     0
 10
105.5774343227949
 20
-4923.842082740955
 30
0.0
 11
7359.853411984687
 21
-4923.842082740955
 31
0.0
  0
SOLID
  5
B131F
  8
0
  6
BYBLOCK
 62
     0
 10
-94.42256567720506
 20
-4923.842082740955
 30
0.0
 11
105.5774343227949
 21
-4957.175416074295
 31
0.0
 12
105.5774343227949
 22
-4890.508749407614
 32
0.0
 13
105.5774343227949
 23
-4890.508749407614
 33
0.0
  0
LINE
  5
B1320
  8
0
  6
BYBLOCK
 62
     0
 10
15482.30938964658
 20
-4923.842082740955
 30
0.0
 11
8228.033411984688
 21
-4923.842082740955
 31
0.0
  0
SOLID
  5
B1321
  8
0
  6
BYBLOCK
 62
     0
 10
15682.30938964658
 20
-4923.842082740955
 30
0.0
 11
15482.30938964658
 21
-4957.175416074295
 31
0.0
 12
15482.30938964658
 22
-4890.508749407614
 32
0.0
 13
15482.30938964658
 23
-4890.508749407614
 33
0.0
  0
TEXT
  5
B1322
  8
0
  6
BYBLOCK
 62
     0
 10
7359.943411984687
 20
-5023.842082740955
 30
0.0
 40
200.0
  1
15777
  0
ENDBLK
  5
B14FE
  8
INFO
  0
BLOCK
  8
0
  2
*D13
 70
     1
 10
0.0
 20
0.0
 30
0.0
  3
*D13
  1

  0
POINT
  5
B1326
  8
DEFPOINTS
  6
BYBLOCK
 62
     0
 10
9775.0
 20
125.0
 30
0.0
  0
POINT
  5
B1327
  8
DEFPOINTS
  6
BYBLOCK
 62
     0
 10
15682.30938964658
 20
-4598.551924891067
 30
0.0
  0
LINE
  5
B1328
  8
0
  6
BYBLOCK
 62
     0
 10
9775.0625
 20
125.0
 30
0.0
 11
16113.91010103854
 21
125.0
 31
0.0
  0
LINE
  5
B1329
  8
0
  6
BYBLOCK
 62
     0
 10
15682.37188964658
 20
-4598.551924891067
 30
0.0
 11
16113.91010103854
 21
-4598.551924891067
 31
0.0
  0
LINE
  5
B132A
  8
0
  6
BYBLOCK
 62
     0
 10
16113.73010103853
 20
-75.0
 30
0.0
 11
16113.73010103853
 21
-2136.685962445533
 31
0.0
  0
SOLID
  5
B132B
  8
0
  6
BYBLOCK
 62
     0
 10
16113.73010103853
 20
125.0
 30
0.0
 11
16080.3967677052
 21
-75.0
 31
0.0
 12
16147.06343437187
 22
-75.0
 32
0.0
 13
16147.06343437187
 23
-75.0
 33
0.0
  0
LINE
  5
B132C
  8
0
  6
BYBLOCK
 62
     0
 10
16113.73010103853
 20
-4398.551924891067
 30
0.0
 11
16113.73010103853
 21
-2336.865962445534
 31
0.0
  0
SOLID
  5
B132D
  8
0
  6
BYBLOCK
 62
     0
 10
16113.73010103853
 20
-4598.551924891067
 30
0.0
 11
16080.3967677052
 21
-4398.551924891067
 31
0.0
 12
16147.06343437187
 22
-4398.551924891067
 32
0.0
 13
16147.06343437187
 23
-4398.551924891067
 33
0.0
  0
TEXT
  5
B132E
  8
0
  6
BYBLOCK
 62
     0
 10
16213.73010103853
 20
-2603.775962445532
 30
0.0
 40
200.0
  1
4724
 50
90.0
  0
ENDBLK
  5
B1500
  8
INFO
  0
BLOCK
  8
0
  2
*D14
 70
     1
 10
0.0
 20
0.0
 30
0.0
  3
*D14
  1

  0
LINE
  5
B1332
  8
INFO
 62
     0
 10
-94.42256567720506
 20
-1216.689926821875
 30
0.0
 11
-94.42256567720506
 21
-4924.022082740954
 31
0.0
  0
LINE
  5
B1333
  8
INFO
 62
     0
 10
15682.30938964658
 20
-4598.614424891067
 30
0.0
 11
15682.30938964658
 21
-4924.022082740955
 31
0.0
  0
LINE
  5
B1334
  8
INFO
 62
     0
 10
105.5774343227949
 20
-4923.842082740954
 30
0.0
 11
7359.853411984687
 21
-4923.842082740954
 31
0.0
  0
LINE
  5
B1335
  8
INFO
 62
     0
 10
15482.30938964658
 20
-4923.842082740955
 30
0.0
 11
8228.033411984688
 21
-4923.842082740955
 31
0.0
  0
SOLID
  5
B1336
  8
INFO
 62
     0
 10
105.5774343227949
 20
-4890.508749407621
 30
0.0
 11
105.5774343227949
 21
-4957.175416074287
 31
0.0
 12
-94.42256567720506
 22
-4923.842082740954
 32
0.0
 13
-94.42256567720506
 23
-4923.842082740954
 33
0.0
  0
SOLID
  5
B1337
  8
INFO
 62
     0
 10
15482.30938964658
 20
-4957.175416074288
 30
0.0
 11
15482.30938964658
 21
-4890.508749407622
 31
0.0
 12
15682.30938964658
 22
-4923.842082740955
 32
0.0
 13
15682.30938964658
 23
-4923.842082740955
 33
0.0
  0
TEXT
  5
B1338
  8
INFO
 62
     0
 10
7359.943411984687
 20
-5023.842082740954
 30
0.0
 40
200.0
  1
15777
  0
POINT
  5
B1339
  8
DEFPOINTS
 62
     0
 10
-94.42256567720506
 20
-1216.627426821875
 30
0.0
  0
POINT
  5
B133A
  8
DEFPOINTS
 62
     0
 10
15682.30938964658
 20
-4598.551924891067
 30
0.0
  0
POINT
  5
B1404
  8
DEFPOINTS
 62
     0
 10
15682.30938964658
 20
-4923.842082740955
 30
0.0
  0
ENDBLK
  5
B1502
  8
INFO
  0
BLOCK
  8
0
  2
*D15
 70
     1
 10
0.0
 20
0.0
 30
0.0
  3
*D15
  1

  0
LINE
  5
B133E
  8
INFO
 62
     0
 10
9775.0625
 20
125.0
 30
0.0
 11
16113.91010103854
 21
125.0
 31
0.0
  0
LINE
  5
B133F
  8
INFO
 62
     0
 10
15682.37188964658
 20
-4598.551924891067
 30
0.0
 11
16113.91010103854
 21
-4598.551924891067
 31
0.0
  0
LINE
  5
B1340
  8
INFO
 62
     0
 10
16113.73010103853
 20
-74.99999999999959
 30
0.0
 11
16113.73010103853
 21
-1869.685962445532
 31
0.0
  0
LINE
  5
B1341
  8
INFO
 62
     0
 10
16113.73010103853
 20
-4398.551924891066
 30
0.0
 11
16113.73010103853
 21
-2603.865962445532
 31
0.0
  0
SOLID
  5
B1342
  8
INFO
 62
     0
 10
16147.06343437187
 20
-74.99999999999959
 30
0.0
 11
16080.3967677052
 21
-74.99999999999959
 31
0.0
 12
16113.73010103853
 22
125.0000000000004
 32
0.0
 13
16113.73010103853
 23
125.0000000000004
 33
0.0
  0
SOLID
  5
B1343
  8
INFO
 62
     0
 10
16080.3967677052
 20
-4398.551924891066
 30
0.0
 11
16147.06343437187
 21
-4398.551924891066
 31
0.0
 12
16113.73010103853
 22
-4598.551924891066
 32
0.0
 13
16113.73010103853
 23
-4598.551924891066
 33
0.0
  0
TEXT
  5
B1344
  8
INFO
 62
     0
 10
16213.73010103853
 20
-2603.775962445532
 30
0.0
 40
200.0
  1
4724
 50
90.0
  0
POINT
  5
B1345
  8
DEFPOINTS
 62
     0
 10
9775.0
 20
125.0
 30
0.0
  0
POINT
  5
B1346
  8
DEFPOINTS
 62
     0
 10
15682.30938964658
 20
-4598.551924891067
 30
0.0
  0
POINT
  5
B1405
  8
DEFPOINTS
 62
     0
 10
16113.73010103853
 20
-4598.551924891067
 30
0.0
  0
ENDBLK
  5
B1504
  8
INFO
  0
BLOCK
  8
0
  2
*D16
 70
     1
 10
0.0
 20
0.0
 30
0.0
  3
*D16
  1

  0
LINE
  5
B134B
  8
INFO
 62
     0
 10
486.2435220985726
 20
-1447.959219737207
 30
0.0
 11
716.4284602123757
 21
-1824.889915730443
 31
0.0
  0
LINE
  5
B134C
  8
INFO
 62
     0
 10
1775.0
 20
-875.0625
 30
0.0
 11
1775.0
 21
-1527.222475161413
 31
0.0
  0
ARC
  5
B134D
  8
INFO
 62
     0
 10
1775.0
 20
-3558.313963890842
 30
0.0
 40
2031.271488729429
 50
73.06046778858551
 51
81.53023389429781
  0
ARC
  5
B134E
  8
INFO
 62
     0
 10
1775.0
 20
-3558.313963890842
 30
0.0
 40
2031.271488729429
 50
129.8814435542813
 51
138.3512096599942
  0
SOLID
  5
B134F
  8
INFO
 62
     0
 10
2077.873179594615
 20
-1499.33260179021
 30
0.0
 11
2070.488642331513
 21
-1599.059572111231
 31
0.0
 12
1775.0
 22
-1527.042475161413
 32
0.0
 13
1775.0
 23
-1527.042475161413
 33
0.0
  0
SOLID
  5
B1350
  8
INFO
 62
     0
 10
501.6855918266116
 20
-2040.202727059803
 30
0.0
 11
443.4072387025367
 21
-1958.939983092191
 31
0.0
 12
716.3346471674097
 22
-1824.736295703772
 32
0.0
 13
716.3346471674097
 23
-1824.736295703772
 33
0.0
  0
TEXT
  5
B1351
  8
INFO
 62
     0
 10
1025.137758143629
 20
-1702.881690477683
 30
0.0
 40
200.0
  1
31\U+00B0
  0
POINT
  5
B1352
  8
DEFPOINTS
 62
     0
 10
1242.521352604766
 20
-1598.076643821353
 30
0.0
  0
POINT
  5
B1353
  8
DEFPOINTS
 62
     0
 10
486.2109481246262
 20
-1447.905879450169
 30
0.0
  0
POINT
  5
B1354
  8
DEFPOINTS
 62
     0
 10
1775.0
 20
-500.0
 30
0.0
  0
POINT
  5
B1406
  8
DEFPOINTS
 62
     0
 10
1775.0
 20
-875.0
 30
0.0
  0
POINT
  5
B1407
  8
DEFPOINTS
 62
     0
 10
225.6191565530353
 20
-1021.183583143182
 30
0.0
  0
ENDBLK
  5
B1506
  8
INFO
  0
BLOCK
  8
0
  2
*D17
 70
     1
 10
0.0
 20
0.0
 30
0.0
  3
*D17
  1

  0
LINE
  5
B1451
  8
INFO
 62
     0
 10
-94.42256567720506
 20
-1216.689926821875
 30
0.0
 11
-94.42256567720506
 21
-4924.022082740954
 31
0.0
  0
LINE
  5
B1452
  8
INFO
 62
     0
 10
15682.30938964658
 20
-4598.614424891067
 30
0.0
 11
15682.30938964658
 21
-4924.022082740955
 31
0.0
  0
LINE
  5
B1453
  8
INFO
 62
     0
 10
105.5774343227949
 20
-4923.842082740954
 30
0.0
 11
7359.853411984687
 21
-4923.842082740954
 31
0.0
  0
LINE
  5
B1454
  8
INFO
 62
     0
 10
15482.30938964658
 20
-4923.842082740955
 30
0.0
 11
8228.033411984688
 21
-4923.842082740955
 31
0.0
  0
SOLID
  5
B1455
  8
INFO
 62
     0
 10
105.5774343227949
 20
-4890.508749407621
 30
0.0
 11
105.5774343227949
 21
-4957.175416074287
 31
0.0
 12
-94.42256567720506
 22
-4923.842082740954
 32
0.0
 13
-94.42256567720506
 23
-4923.842082740954
 33
0.0
  0
SOLID
  5
B1456
  8
INFO
 62
     0
 10
15482.30938964658
 20
-4957.175416074288
 30
0.0
 11
15482.30938964658
 21
-4890.508749407622
 31
0.0
 12
15682.30938964658
 22
-4923.842082740955
 32
0.0
 13
15682.30938964658
 23
-4923.842082740955
 33
0.0
  0
TEXT
  5
B1457
  8
INFO
 62
     0
 10
7359.943411984687
 20
-5023.842082740954
 30
0.0
 40
200.0
  1
15777
  0
POINT
  5
B1458
  8
DEFPOINTS
 62
     0
 10
-94.42256567720506
 20
-1216.627426821875
 30
0.0
  0
POINT
  5
B1459
  8
DEFPOINTS
 62
     0
 10
15682.30938964658
 20
-4598.551924891067
 30
0.0
  0
POINT
  5
B150F
  8
DEFPOINTS
 62
     0
 10
15682.30938964658
 20
-4923.842082740955
 30
0.0
  0
ENDBLK
  5
B1508
  8
0
  0
BLOCK
  8
0
  2
*D18
 70
     1
 10
0.0
 20
0.0
 30
0.0
  3
*D18
  1

  0
LINE
  5
B145E
  8
INFO
 62
     0
 10
9775.0625
 20
125.0
 30
0.0
 11
16113.91010103854
 21
125.0
 31
0.0
  0
LINE
  5
B145F
  8
INFO
 62
     0
 10
15682.37188964658
 20
-4598.551924891067
 30
0.0
 11
16113.91010103854
 21
-4598.551924891067
 31
0.0
  0
LINE
  5
B1460
  8
INFO
 62
     0
 10
16113.73010103853
 20
-74.99999999999959
 30
0.0
 11
16113.73010103853
 21
-1869.685962445532
 31
0.0
  0
LINE
  5
B1461
  8
INFO
 62
     0
 10
16113.73010103853
 20
-4398.551924891066
 30
0.0
 11
16113.73010103853
 21
-2603.865962445532
 31
0.0
  0
SOLID
  5
B1462
  8
INFO
 62
     0
 10
16147.06343437187
 20
-74.99999999999959
 30
0.0
 11
16080.3967677052
 21
-74.99999999999959
 31
0.0
 12
16113.73010103853
 22
125.0000000000004
 32
0.0
 13
16113.73010103853
 23
125.0000000000004
 33
0.0
  0
SOLID
  5
B1463
  8
INFO
 62
     0
 10
16080.3967677052
 20
-4398.551924891066
 30
0.0
 11
16147.06343437187
 21
-4398.551924891066
 31
0.0
 12
16113.73010103853
 22
-4598.551924891066
 32
0.0
 13
16113.73010103853
 23
-4598.551924891066
 33
0.0
  0
TEXT
  5
B1464
  8
INFO
 62
     0
 10
16213.73010103853
 20
-2603.775962445532
 30
0.0
 40
200.0
  1
4724
 50
90.0
  0
POINT
  5
B1465
  8
DEFPOINTS
 62
     0
 10
9775.0
 20
125.0
 30
0.0
  0
POINT
  5
B1466
  8
DEFPOINTS
 62
     0
 10
15682.30938964658
 20
-4598.551924891067
 30
0.0
  0
POINT
  5
B1510
  8
DEFPOINTS
 62
     0
 10
16113.73010103853
 20
-4598.551924891067
 30
0.0
  0
ENDBLK
  5
B150A
  8
0
  0
BLOCK
  8
0
  2
*D19
 70
     1
 10
0.0
 20
0.0
 30
0.0
  3
*D19
  1

  0
LINE
  5
B1470
  8
INFO
 62
     0
 10
486.2435220985726
 20
-1447.959219737207
 30
0.0
 11
716.4284602123757
 21
-1824.889915730443
 31
0.0
  0
LINE
  5
B1471
  8
INFO
 62
     0
 10
1775.0
 20
-875.0625
 30
0.0
 11
1775.0
 21
-1527.222475161413
 31
0.0
  0
ARC
  5
B1472
  8
INFO
 62
     0
 10
1775.0
 20
-3558.313963890842
 30
0.0
 40
2031.271488729429
 50
73.06046778858551
 51
81.53023389429781
  0
ARC
  5
B1473
  8
INFO
 62
     0
 10
1775.0
 20
-3558.313963890842
 30
0.0
 40
2031.271488729429
 50
129.8814435542813
 51
138.3512096599942
  0
SOLID
  5
B1474
  8
INFO
 62
     0
 10
2077.873179594615
 20
-1499.33260179021
 30
0.0
 11
2070.488642331513
 21
-1599.059572111231
 31
0.0
 12
1775.0
 22
-1527.042475161413
 32
0.0
 13
1775.0
 23
-1527.042475161413
 33
0.0
  0
SOLID
  5
B1475
  8
INFO
 62
     0
 10
501.6855918266116
 20
-2040.202727059803
 30
0.0
 11
443.4072387025367
 21
-1958.939983092191
 31
0.0
 12
716.3346471674097
 22
-1824.736295703772
 32
0.0
 13
716.3346471674097
 23
-1824.736295703772
 33
0.0
  0
TEXT
  5
B1476
  8
INFO
 62
     0
 10
1025.137758143629
 20
-1702.881690477683
 30
0.0
 40
200.0
  1
31\U+00B0
  0
POINT
  5
B1477
  8
DEFPOINTS
 62
     0
 10
1242.521352604766
 20
-1598.076643821353
 30
0.0
  0
POINT
  5
B1478
  8
DEFPOINTS
 62
     0
 10
486.2109481246262
 20
-1447.905879450169
 30
0.0
  0
POINT
  5
B1479
  8
DEFPOINTS
 62
     0
 10
1775.0
 20
-500.0
 30
0.0
  0
POINT
  5
B147A
  8
DEFPOINTS
 62
     0
 10
1775.0
 20
-875.0
 30
0.0
  0
POINT
  5
B1511
  8
DEFPOINTS
 62
     0
 10
225.6191565530353
 20
-1021.183583143182
 30
0.0
  0
ENDBLK
  5
B150C
  8
0
  0
BLOCK
  8
0
  2
KARLSRUHE-DURLACH
 70
     0
 10
0.0
 20
0.0
 30
0.0
  3
KARLSRUHE-DURLACH
  1

  0
LINE
  5
B1486
  8
0
 10
375.0
 20
0.0
 30
0.0
 11
375.0
 21
-500.0
 31
0.0
  0
LINE
  5
B1487
  8
0
 10
375.0
 20
-500.0
 30
0.0
 11
1775.0
 21
-500.0
 31
0.0
  0
LINE
  5
B1488
  8
0
 10
1775.0
 20
0.0
 30
0.0
 11
375.0
 21
0.0
 31
0.0
  0
LINE
  5
B1489
  8
0
 10
1775.0
 20
-875.0
 30
0.0
 11
3375.0
 21
-875.0
 31
0.0
  0
LINE
  5
B148A
  8
0
 10
3375.0
 20
-875.0
 30
0.0
 11
3375.0
 21
-125.0
 31
0.0
  0
LINE
  5
B148B
  8
0
 10
3375.0
 20
-125.0
 30
0.0
 11
1775.0
 21
-125.0
 31
0.0
  0
LINE
  5
B148C
  8
0
 10
1775.0
 20
0.0
 30
0.0
 11
1775.0
 21
-500.0
 31
0.0
  0
LINE
  5
B148D
  8
0
 10
3375.0
 20
-125.0
 30
0.0
 11
3375.0
 21
-625.0
 31
0.0
  0
LINE
  5
B148E
  8
0
 10
3375.0
 20
-625.0
 30
0.0
 11
4225.0
 21
-625.0
 31
0.0
  0
LINE
  5
B148F
  8
0
 10
4225.0
 20
-625.0
 30
0.0
 11
4225.0
 21
-125.0
 31
0.0
  0
LINE
  5
B1490
  8
0
 10
4225.0
 20
-125.0
 30
0.0
 11
3375.0
 21
-125.0
 31
0.0
  0
LINE
  5
B1491
  8
0
 10
3375.0
 20
-125.0
 30
0.0
 11
3375.0
 21
-125.0
 31
0.0
  0
LINE
  5
B1492
  8
0
 10
4225.0
 20
-625.0
 30
0.0
 11
5425.0
 21
-625.0
 31
0.0
  0
LINE
  5
B1493
  8
0
 10
5425.0
 20
-625.0
 30
0.0
 11
5425.0
 21
125.0
 31
0.0
  0
LINE
  5
B1494
  8
0
 10
5425.0
 20
125.0
 30
0.0
 11
4225.0
 21
125.0
 31
0.0
  0
LINE
  5
B1495
  8
0
 10
4225.0
 20
125.0
 30
0.0
 11
4225.0
 21
-625.0
 31
0.0
  0
LINE
  5
B1496
  8
0
 10
5425.0
 20
-625.0
 30
0.0
 11
6625.0
 21
-625.0
 31
0.0
  0
LINE
  5
B1497
  8
0
 10
6625.0
 20
-625.0
 30
0.0
 11
6625.0
 21
125.0
 31
0.0
  0
LINE
  5
B1498
  8
0
 10
6625.0
 20
125.0
 30
0.0
 11
5425.0
 21
125.0
 31
0.0
  0
LINE
  5
B1499
  8
0
 10
5425.0
 20
125.0
 30
0.0
 11
5425.0
 21
-625.0
 31
0.0
  0
LINE
  5
B149A
  8
0
 10
6625.0
 20
-625.0
 30
0.0
 11
7525.0
 21
-625.0
 31
0.0
  0
LINE
  5
B149B
  8
0
 10
7525.0
 20
-625.0
 30
0.0
 11
7525.0
 21
125.0
 31
0.0
  0
LINE
  5
B149C
  8
0
 10
7525.0
 20
125.0
 30
0.0
 11
6625.0
 21
125.0
 31
0.0
  0
LINE
  5
B149D
  8
0
 10
6625.0
 20
125.0
 30
0.0
 11
6625.0
 21
-625.0
 31
0.0
  0
LINE
  5
B149E
  8
0
 10
7525.0
 20
-625.0
 30
0.0
 11
8925.0
 21
-625.0
 31
0.0
  0
LINE
  5
B149F
  8
0
 10
8925.0
 20
-625.0
 30
0.0
 11
8925.0
 21
125.0
 31
0.0
  0
LINE
  5
B14A0
  8
0
 10
8925.0
 20
125.0
 30
0.0
 11
7525.0
 21
125.0
 31
0.0
  0
LINE
  5
B14A1
  8
0
 10
7525.0
 20
125.0
 30
0.0
 11
7525.0
 21
-625.0
 31
0.0
  0
LINE
  5
B14A2
  8
0
 10
8925.0
 20
-625.0
 30
0.0
 11
9775.0
 21
-625.0
 31
0.0
  0
LINE
  5
B14A3
  8
0
 10
9775.0
 20
-625.0
 30
0.0
 11
9775.0
 21
125.0
 31
0.0
  0
LINE
  5
B14A4
  8
0
 10
9775.0
 20
125.0
 30
0.0
 11
8925.0
 21
125.0
 31
0.0
  0
LINE
  5
B14A5
  8
0
 10
8925.0
 20
125.0
 30
0.0
 11
8925.0
 21
-625.0
 31
0.0
  0
LINE
  5
B14A6
  8
0
 10
9775.0
 20
-625.0
 30
0.0
 11
9775.0
 21
-875.0
 31
0.0
  0
LINE
  5
B14A7
  8
0
 10
9775.0
 20
-875.0
 30
0.0
 11
10995.0
 21
-875.0
 31
0.0
  0
LINE
  5
B14A8
  8
0
 10
9775.0
 20
-625.0
 30
0.0
 11
9775.0
 21
-125.0
 31
0.0
  0
LINE
  5
B14A9
  8
0
 10
9775.0
 20
-125.0
 30
0.0
 11
11175.0
 21
-125.0
 31
0.0
  0
LINE
  5
B14AA
  8
0
 10
11175.0
 20
-125.0
 30
0.0
 11
10995.0
 21
-875.0
 31
0.0
  0
LINE
  5
B14AB
  8
0
 10
11175.0
 20
-125.0
 30
0.0
 11
12487.71778157268
 21
-611.5922584083237
 31
0.0
  0
LINE
  5
B14AC
  8
0
 10
11570.68446663902
 20
-1071.537797903811
 30
0.0
 11
12142.6543571814
 21
-1283.552996210296
 31
0.0
  0
LINE
  5
B14AD
  8
0
 10
12142.6543571814
 20
-1283.552996210296
 30
0.0
 11
12487.71778157268
 21
-611.5922584083237
 31
0.0
  0
LINE
  5
B14AE
  8
0
 10
11570.68446663902
 20
-1071.537797903811
 30
0.0
 11
10998.71457609664
 21
-859.5225995973251
 31
0.0
  0
LINE
  5
B14AF
  8
0
 10
12487.71778157268
 20
-611.5922584083237
 30
0.0
 11
13482.28107317366
 21
-1283.041332426474
 31
0.0
  0
LINE
  5
B14B0
  8
0
 10
12565.34375611183
 20
-1568.918852668008
 30
0.0
 11
12988.03315504224
 21
-1854.284709125723
 31
0.0
  0
LINE
  5
B14B1
  8
0
 10
12565.34375611183
 20
-1568.918852668008
 30
0.0
 11
12142.6543571814
 21
-1283.552996210296
 31
0.0
  0
LINE
  5
B14B2
  8
0
 10
12988.03315504224
 20
-1854.284709125723
 30
0.0
 11
13729.70427782084
 21
-2653.048720355775
 31
0.0
  0
LINE
  5
B14B3
  8
0
 10
14462.51529729796
 20
-1972.61649762311
 30
0.0
 11
13645.99663001876
 21
-1093.243274250573
 31
0.0
  0
LINE
  5
B14B4
  8
0
 10
13646.25567650724
 20
-1093.52226180433
 30
0.0
 11
12988.03315504224
 21
-1854.284709125723
 31
0.0
  0
LINE
  5
B14B5
  8
0
 10
14462.51529729796
 20
-1972.61649762311
 30
0.0
 11
15415.12040912368
 21
-2998.551924891066
 31
0.0
  0
LINE
  5
B14B6
  8
0
 10
15415.12040912368
 20
-2998.551924891066
 30
0.0
 11
14682.30938964658
 21
-3678.984147623732
 31
0.0
  0
LINE
  5
B14B7
  8
0
 10
14682.30938964658
 20
-3678.984147623732
 30
0.0
 11
13729.70427782084
 21
-2653.048720355775
 31
0.0
  0
LINE
  5
B14B8
  8
0
 10
13729.70427782084
 20
-2653.048720355775
 30
0.0
 11
14462.51529729796
 21
-1972.61649762311
 31
0.0
  0
LINE
  5
B14B9
  8
0
 10
1424.351443542299
 20
-875.0
 30
0.0
 11
486.2109481246262
 21
-1447.905879450169
 31
0.0
  0
LINE
  5
B14BA
  8
0
 10
486.2109481246262
 20
-1447.905879450169
 30
0.0
 11
225.6191565530353
 21
-1021.183583143182
 31
0.0
  0
LINE
  5
B14BB
  8
0
 10
225.6191565530353
 20
-1021.183583143182
 30
0.0
 11
1079.063749167011
 21
-500.0
 31
0.0
  0
LINE
  5
B14BC
  8
0
 10
1775.0
 20
-500.0
 30
0.0
 11
1775.0
 21
-875.0
 31
0.0
  0
LINE
  5
B14BD
  8
0
 10
1775.0
 20
-875.0
 30
0.0
 11
1424.351443542299
 21
-875.0
 31
0.0
  0
LINE
  5
B14BE
  8
0
 10
15682.30938964658
 20
-3286.308769244626
 30
0.0
 11
15415.12040912368
 21
-2998.551924891066
 31
0.0
  0
LINE
  5
B14BF
  8
0
 10
14882.30938964645
 20
-3894.379890210277
 30
0.0
 11
14682.30938964657
 21
-3678.984147623728
 31
0.0
  0
LINE
  5
B14C0
  8
0
 10
15682.30938964658
 20
-3286.308769244638
 30
0.0
 11
15682.30938964658
 21
-4598.551924891067
 31
0.0
  0
LINE
  5
B14C1
  8
0
 10
14882.30938964645
 20
-3894.379890210281
 30
0.0
 11
14882.30938964646
 21
-4598.551924891067
 31
0.0
  0
LINE
  5
B14C2
  8
0
 10
14882.30938964646
 20
-4598.551924891067
 30
0.0
 11
15682.30938964658
 21
-4598.551924891068
 31
0.0
  0
LINE
  5
B14C3
  8
0
 10
375.0
 20
0.0
 30
0.0
 11
0.0
 21
0.0
 31
0.0
  0
LINE
  5
B14C4
  8
0
 10
0.0
 20
0.0
 30
0.0
 11
0.0
 21
-500.0
 31
0.0
  0
LINE
  5
B14C5
  8
0
 10
0.0
 20
-500.0
 30
0.0
 11
375.0
 21
-500.0
 31
0.0
  0
LINE
  5
B14C6
  8
0
 10
-94.42256567720506
 20
-1216.627426821875
 30
0.0
 11
225.6191565530353
 21
-1021.183583143182
 31
0.0
  0
LINE
  5
B14C7
  8
0
 10
486.2109481246262
 20
-1447.905879450169
 30
0.0
 11
166.1692258943858
 21
-1643.349723128862
 31
0.0
  0
LINE
  5
B14C8
  8
0
 10
166.1692258943858
 20
-1643.349723128862
 30
0.0
 11
-94.42256567720506
 21
-1216.627426821875
 31
0.0
  0
POLYLINE
  5
B14C9
  8
0
 66
     1
 10
0.0
 20
0.0
 30
0.0
 40
9.0
 41
9.0
  0
VERTEX
  5
B151C
  8
0
 10
15494.80938964658
 20
-4598.551924891066
 30
0.0
  0
VERTEX
  5
B151D
  8
0
 10
15494.80938964658
 20
-4550.03550941426
 30
0.0
  0
SEQEND
  5
B151B
  8
0
  0
POLYLINE
  5
B14CA
  8
0
 66
     1
 10
0.0
 20
0.0
 30
0.0
 40
9.0
 41
9.0
  0
VERTEX
  5
B151F
  8
0
 10
15469.80938964658
 20
-4598.551924891066
 30
0.0
  0
VERTEX
  5
B1520
  8
0
 10
15469.80938964658
 20
-4550.03550941426
 30
0.0
  0
SEQEND
  5
B151E
  8
0
  0
POLYLINE
  5
B14CB
  8
BEDIENRAUM
 66
     1
 10
0.0
 20
0.0
 30
0.0
 70
     1
  0
VERTEX
  5
B1522
  8
BEDIENRAUM
 10
6625.0
 20
125.0
 30
0.0
  0
VERTEX
  5
B1523
  8
BEDIENRAUM
 10
9125.0
 20
125.0
 30
0.0
  0
VERTEX
  5
B1524
  8
BEDIENRAUM
 10
9125.0
 20
2125.0
 30
0.0
  0
VERTEX
  5
B1525
  8
BEDIENRAUM
 10
6625.0
 20
2125.0
 30
0.0
  0
SEQEND
  5
B1521
  8
BEDIENRAUM
  0
DIMENSION
  5
B14CC
  8
INFO
  2
*D17
 10
15682.30938964658
 20
-4923.842082740955
 30
0.0
 11
7793.943411984687
 21
-4923.842082740954
 31
0.0
 70
    32
  3
STANDARD
 13
-94.42256567720506
 23
-1216.627426821875
 33
0.0
 14
15682.30938964658
 24
-4598.551924891067
 34
0.0
1001
ACAD
1000
DSTYLE
1002
{
1070
    41
1040
200.0
1070
   140
1040
200.0
1070
   271
1070
     0
1002
}
  0
DIMENSION
  5
B14CD
  8
INFO
  2
*D18
 10
16113.73010103853
 20
-4598.551924891067
 30
0.0
 11
16113.73010103853
 21
-2236.775962445533
 31
0.0
 70
    32
 53
90.0
  3
STANDARD
 13
9775.0
 23
125.0
 33
0.0
 14
15682.30938964658
 24
-4598.551924891067
 34
0.0
 50
90.0
1001
ACAD
1000
DSTYLE
1002
{
1070
    41
1040
200.0
1070
   140
1040
200.0
1070
   271
1070
     0
1002
}
  0
POLYLINE
  5
B14CE
  8
0
 66
     1
 10
0.0
 20
0.0
 30
0.0
 40
9.0
 41
9.0
  0
VERTEX
  5
B1527
  8
0
 10
0.0
 20
-237.5
 30
0.0
  0
VERTEX
  5
B1528
  8
0
 10
375.0
 20
-237.5
 30
0.0
  0
SEQEND
  5
B1526
  8
0
  0
POLYLINE
  5
B14CF
  8
0
 66
     1
 10
0.0
 20
0.0
 30
0.0
 40
9.0
 41
9.0
  0
VERTEX
  5
B152A
  8
0
 10
0.0
 20
-262.5
 30
0.0
  0
VERTEX
  5
B152B
  8
0
 10
375.0
 20
-262.5
 30
0.0
  0
SEQEND
  5
B1529
  8
0
  0
POLYLINE
  5
B14D0
  8
0
 66
     1
 10
0.0
 20
0.0
 30
0.0
 40
9.0
 41
9.0
  0
VERTEX
  5
B152D
  8
0
 10
29.35853531930115
 20
-1419.320517567694
 30
0.0
  0
VERTEX
  5
B152E
  8
0
 10
349.4002575495415
 20
-1223.876673889001
 30
0.0
  0
SEQEND
  5
B152C
  8
0
  0
POLYLINE
  5
B14D1
  8
0
 66
     1
 10
0.0
 20
0.0
 30
0.0
 40
9.0
 41
9.0
  0
VERTEX
  5
B1530
  8
0
 10
42.38812489787961
 20
-1440.656632383043
 30
0.0
  0
VERTEX
  5
B1531
  8
0
 10
362.4298471281218
 20
-1245.21278870435
 30
0.0
  0
SEQEND
  5
B152F
  8
0
  0
TEXT
  5
B14D2
  8
0
 10
4874.585399670053
 20
-1127.643228805548
 30
0.0
 40
300.0
  1
Karlsruhe Durlach
  0
DIMENSION
  5
B14D3
  8
INFO
  2
*D19
 10
225.6191565530353
 20
-1021.183583143182
 30
0.0
 11
1225.137758143629
 21
-1602.881690477683
 31
0.0
 70
    34
  3
STANDARD
 13
1775.0
 23
-500.0
 33
0.0
 14
1775.0
 24
-875.0
 34
0.0
 15
486.2109481246262
 25
-1447.905879450169
 35
0.0
 16
1242.521352604766
 26
-1598.076643821353
 36
0.0
1001
ACAD
1000
DSTYLE
1002
{
1070
    41
1040
300.0
1070
   140
1040
200.0
1070
   271
1070
     0
1002
}
  0
TEXT
  5
B14D4
  8
0
 10
466.7373573497831
 20
-254.780273365199
 30
0.0
 40
100.0
  1
Grötzingen
  0
TEXT
  5
B14D5
  8
0
 10
496.6323444717576
 20
-1180.653966381207
 30
0.0
 40
99.99999999999115
  1
Weingarten
 50
34.25260049019422
  0
TEXT
  5
B14D6
  8
0
 10
15424.38212546168
 20
-4209.458410373229
 30
0.0
 40
100.0
  1
Hbf
 50
270.0
  0
POLYLINE
  5
B14D7
  8
0
 66
     1
 10
0.0
 20
0.0
 30
0.0
 40
9.0
 41
9.0
  0
VERTEX
  5
B1533
  8
0
 10
15094.80938964646
 20
-4598.551924891067
 30
0.0
  0
VERTEX
  5
B1534
  8
0
 10
15094.80938964646
 20
-4550.035509414261
 30
0.0
  0
SEQEND
  5
B1532
  8
0
  0
POLYLINE
  5
B14D8
  8
0
 66
     1
 10
0.0
 20
0.0
 30
0.0
 40
9.0
 41
9.0
  0
VERTEX
  5
B1536
  8
0
 10
15069.80938964646
 20
-4598.551924891067
 30
0.0
  0
VERTEX
  5
B1537
  8
0
 10
15069.80938964646
 20
-4550.035509414261
 30
0.0
  0
SEQEND
  5
B1535
  8
0
  0
TEXT
  5
B14D9
  8
0
 10
15024.38212546155
 20
-4209.45841037323
 30
0.0
 40
100.0
  1
Gbf
 50
270.0
  0
ENDBLK
  5
B150E
  8
0
  0
ENDSEC
  0
SECTION
  2
ENTITIES
  0
INSERT
  5
B14DC
  8
0
  2
KARLSRUHE-DURLACH
 10
0.0
 20
0.0
 30
0.0
  0
VIEWPORT
  5
10716
 67
     1
  8
0
 10
7.8
 20
4.5
 30
0.0
 40
15.64
 41
9.0
 68
     1
 69
     1
1001
ACAD
1000
MVIEW
1002
{
1070
    16
1010
0.0
1020
0.0
1030
0.0
1020
0.0
1030
0.0
1010
0.0
1020
0.0
1030
1.0
1020
0.0
1030
1.0
1040
0.0
1040
12.0
1040
6.0
1040
4.5
1040
50.0
1040
0.0
1040
0.0
1070
    16
1070
   100
1070
     0
1070
     3
1070
     0
1070
     0
1070
     0
1070
     0
1040
0.0
1040
0.0
1040
0.0
1040
0.5
1040
0.5
1040
0.5
1040
0.5
1070
     0
1002
{
1002
}
1002
}
  0
ENDSEC
  0
EOF
