  0
SECTION
  2
HEADER
  9
$ACADVER
  1
AC1018
  9
$ACADMAINTVER
 70
    39
  9
$DWGCODEPAGE
  3
ANSI_1252
  9
$LASTSAVEDBY
  1
fottrem
  9
$INSBASE
 10
0.0
 20
0.0
 30
0.0
  9
$EXTMIN
 10
-900.0000000000047
 20
-900.000000000006
 30
0.0
  9
$EXTMAX
 10
900.0000000000081
 20
1109.666249384324
 30
0.0
  9
$LIMMIN
 10
0.0
 20
0.0
  9
$LIMMAX
 10
420.0
 20
297.0
  9
$ORTHOMODE
 70
     0
  9
$REGENMODE
 70
     1
  9
$FILLMODE
 70
     1
  9
$QTEXTMODE
 70
     0
  9
$MIRRTEXT
 70
     0
  9
$LTSCALE
 40
1.0
  9
$ATTMODE
 70
     1
  9
$TEXTSIZE
 40
2.5
  9
$TRACEWID
 40
1.0
  9
$TEXTSTYLE
  7
Standard
  9
$CLAYER
  8
Info
  9
$CELTYPE
  6
ByLayer
  9
$CECOLOR
 62
   256
  9
$CELTSCALE
 40
1.0
  9
$DISPSILH
 70
     0
  9
$DIMSCALE
 40
1.0
  9
$DIMASZ
 40
2.5
  9
$DIMEXO
 40
0.625
  9
$DIMDLI
 40
3.75
  9
$DIMRND
 40
0.0
  9
$DIMDLE
 40
0.0
  9
$DIMEXE
 40
1.25
  9
$DIMTP
 40
0.0
  9
$DIMTM
 40
0.0
  9
$DIMTXT
 40
20.0
  9
$DIMCEN
 40
2.5
  9
$DIMTSZ
 40
0.0
  9
$DIMTOL
 70
     0
  9
$DIMLIM
 70
     0
  9
$DIMTIH
 70
     0
  9
$DIMTOH
 70
     0
  9
$DIMSE1
 70
     0
  9
$DIMSE2
 70
     0
  9
$DIMTAD
 70
     1
  9
$DIMZIN
 70
     8
  9
$DIMBLK
  1

  9
$DIMASO
 70
     1
  9
$DIMSHO
 70
     1
  9
$DIMPOST
  1

  9
$DIMAPOST
  1

  9
$DIMALT
 70
     0
  9
$DIMALTD
 70
     3
  9
$DIMALTF
 40
0.03937007874016
  9
$DIMLFAC
 40
1.0
  9
$DIMTOFL
 70
     1
  9
$DIMTVP
 40
0.0
  9
$DIMTIX
 70
     0
  9
$DIMSOXD
 70
     0
  9
$DIMSAH
 70
     0
  9
$DIMBLK1
  1

  9
$DIMBLK2
  1

  9
$DIMSTYLE
  2
ISO-25
  9
$DIMCLRD
 70
     0
  9
$DIMCLRE
 70
     0
  9
$DIMCLRT
 70
     0
  9
$DIMTFAC
 40
1.0
  9
$DIMGAP
 40
0.625
  9
$DIMJUST
 70
     0
  9
$DIMSD1
 70
     0
  9
$DIMSD2
 70
     0
  9
$DIMTOLJ
 70
     0
  9
$DIMTZIN
 70
     8
  9
$DIMALTZ
 70
     0
  9
$DIMALTTZ
 70
     0
  9
$DIMUPT
 70
     0
  9
$DIMDEC
 70
     2
  9
$DIMTDEC
 70
     2
  9
$DIMALTU
 70
     2
  9
$DIMALTTD
 70
     3
  9
$DIMTXSTY
  7
Standard
  9
$DIMAUNIT
 70
     0
  9
$DIMADEC
 70
     2
  9
$DIMALTRND
 40
0.0
  9
$DIMAZIN
 70
     0
  9
$DIMDSEP
 70
    44
  9
$DIMATFIT
 70
     3
  9
$DIMFRAC
 70
     0
  9
$DIMLDRBLK
  1

  9
$DIMLUNIT
 70
     2
  9
$DIMLWD
 70
    -2
  9
$DIMLWE
 70
    -2
  9
$DIMTMOVE
 70
     0
  9
$LUNITS
 70
     2
  9
$LUPREC
 70
     4
  9
$SKETCHINC
 40
1.0
  9
$FILLETRAD
 40
0.0
  9
$AUNITS
 70
     0
  9
$AUPREC
 70
     0
  9
$MENU
  1
.
  9
$ELEVATION
 40
0.0
  9
$PELEVATION
 40
0.0
  9
$THICKNESS
 40
0.0
  9
$LIMCHECK
 70
     0
  9
$CHAMFERA
 40
0.0
  9
$CHAMFERB
 40
0.0
  9
$CHAMFERC
 40
0.0
  9
$CHAMFERD
 40
0.0
  9
$SKPOLY
 70
     0
  9
$TDCREATE
 40
2453353.800459155
  9
$TDUCREATE
 40
2453353.717125822
  9
$TDUPDATE
 40
2455466.148311111
  9
$TDUUPDATE
 40
2455466.064977778
  9
$TDINDWG
 40
4895786.051922963
  9
$TDUSRTIMER
 40
4895786.051922963
  9
$USRTIMER
 70
     1
  9
$ANGBASE
 50
0.0
  9
$ANGDIR
 70
     0
  9
$PDMODE
 70
     0
  9
$PDSIZE
 40
0.0
  9
$PLINEWID
 40
9.0
  9
$SPLFRAME
 70
     0
  9
$SPLINETYPE
 70
     6
  9
$SPLINESEGS
 70
     8
  9
$HANDSEED
  5
1FC
  9
$SURFTAB1
 70
     6
  9
$SURFTAB2
 70
     6
  9
$SURFTYPE
 70
     6
  9
$SURFU
 70
     6
  9
$SURFV
 70
     6
  9
$UCSBASE
  2

  9
$UCSNAME
  2

  9
$UCSORG
 10
0.0
 20
0.0
 30
0.0
  9
$UCSXDIR
 10
1.0
 20
0.0
 30
0.0
  9
$UCSYDIR
 10
0.0
 20
1.0
 30
0.0
  9
$UCSORTHOREF
  2

  9
$UCSORTHOVIEW
 70
     0
  9
$UCSORGTOP
 10
0.0
 20
0.0
 30
0.0
  9
$UCSORGBOTTOM
 10
0.0
 20
0.0
 30
0.0
  9
$UCSORGLEFT
 10
0.0
 20
0.0
 30
0.0
  9
$UCSORGRIGHT
 10
0.0
 20
0.0
 30
0.0
  9
$UCSORGFRONT
 10
0.0
 20
0.0
 30
0.0
  9
$UCSORGBACK
 10
0.0
 20
0.0
 30
0.0
  9
$PUCSBASE
  2

  9
$PUCSNAME
  2

  9
$PUCSORG
 10
0.0
 20
0.0
 30
0.0
  9
$PUCSXDIR
 10
1.0
 20
0.0
 30
0.0
  9
$PUCSYDIR
 10
0.0
 20
1.0
 30
0.0
  9
$PUCSORTHOREF
  2

  9
$PUCSORTHOVIEW
 70
     0
  9
$PUCSORGTOP
 10
0.0
 20
0.0
 30
0.0
  9
$PUCSORGBOTTOM
 10
0.0
 20
0.0
 30
0.0
  9
$PUCSORGLEFT
 10
0.0
 20
0.0
 30
0.0
  9
$PUCSORGRIGHT
 10
0.0
 20
0.0
 30
0.0
  9
$PUCSORGFRONT
 10
0.0
 20
0.0
 30
0.0
  9
$PUCSORGBACK
 10
0.0
 20
0.0
 30
0.0
  9
$USERI1
 70
     0
  9
$USERI2
 70
     0
  9
$USERI3
 70
     0
  9
$USERI4
 70
     0
  9
$USERI5
 70
     0
  9
$USERR1
 40
0.0
  9
$USERR2
 40
0.0
  9
$USERR3
 40
0.0
  9
$USERR4
 40
0.0
  9
$USERR5
 40
0.0
  9
$WORLDVIEW
 70
     1
  9
$SHADEDGE
 70
     3
  9
$SHADEDIF
 70
    70
  9
$TILEMODE
 70
     1
  9
$MAXACTVP
 70
    64
  9
$PINSBASE
 10
0.0
 20
0.0
 30
0.0
  9
$PLIMCHECK
 70
     0
  9
$PEXTMIN
 10
1.000000000000000E+20
 20
1.000000000000000E+20
 30
1.000000000000000E+20
  9
$PEXTMAX
 10
-1.000000000000000E+20
 20
-1.000000000000000E+20
 30
-1.000000000000000E+20
  9
$PLIMMIN
 10
0.0
 20
0.0
  9
$PLIMMAX
 10
420.0
 20
297.0
  9
$UNITMODE
 70
     0
  9
$VISRETAIN
 70
     1
  9
$PLINEGEN
 70
     0
  9
$PSLTSCALE
 70
     1
  9
$TREEDEPTH
 70
  3020
  9
$CMLSTYLE
  2
Standard
  9
$CMLJUST
 70
     0
  9
$CMLSCALE
 40
20.0
  9
$PROXYGRAPHICS
 70
     1
  9
$MEASUREMENT
 70
     1
  9
$CELWEIGHT
370
    -1
  9
$ENDCAPS
280
     0
  9
$JOINSTYLE
280
     0
  9
$LWDISPLAY
290
     0
  9
$INSUNITS
 70
     4
  9
$HYPERLINKBASE
  1

  9
$STYLESHEET
  1

  9
$XEDIT
290
     0
  9
$CEPSNTYPE
380
     0
  9
$PSTYLEMODE
290
     1
  9
$FINGERPRINTGUID
  2
{5559452E-1E62-4159-8551-BF76FFF3E7E8}
  9
$VERSIONGUID
  2
{3CEB9EF8-4431-4551-B596-6734A9F966A9}
  9
$EXTNAMES
290
     1
  9
$PSVPSCALE
 40
0.0
  9
$OLESTARTUP
290
     0
  9
$SORTENTS
280
   127
  9
$INDEXCTL
280
     0
  9
$HIDETEXT
280
     1
  9
$XCLIPFRAME
290
     0
  9
$HALOGAP
280
     0
  9
$OBSCOLOR
 70
   257
  9
$OBSLTYPE
280
     0
  9
$INTERSECTIONDISPLAY
280
     0
  9
$INTERSECTIONCOLOR
 70
   257
  9
$DIMASSOC
280
     2
  9
$PROJECTNAME
  1

  0
ENDSEC
  0
SECTION
  2
CLASSES
  0
CLASS
  1
ACDBDICTIONARYWDFLT
  2
AcDbDictionaryWithDefault
  3
ObjectDBX Classes
 90
        0
 91
        3
280
     0
281
     0
  0
CLASS
  1
ACDBPLACEHOLDER
  2
AcDbPlaceHolder
  3
ObjectDBX Classes
 90
        0
 91
        1
280
     0
281
     0
  0
CLASS
  1
LAYOUT
  2
AcDbLayout
  3
ObjectDBX Classes
 90
        0
 91
        1
280
     0
281
     0
  0
CLASS
  1
DICTIONARYVAR
  2
AcDbDictionaryVar
  3
ObjectDBX Classes
 90
        0
 91
        3
280
     0
281
     0
  0
CLASS
  1
TABLESTYLE
  2
AcDbTableStyle
  3
ObjectDBX Classes
 90
     2047
 91
        3
280
     0
281
     0
  0
ENDSEC
  0
SECTION
  2
TABLES
  0
TABLE
  2
VPORT
  5
8
330
0
100
AcDbSymbolTable
 70
     2
  0
VPORT
  5
97
330
8
100
AcDbSymbolTableRecord
100
AcDbViewportTableRecord
  2
*Active
 70
     0
 10
0.0
 20
0.0
 11
1.0
 21
1.0
 12
61.68227858608301
 22
751.9677658388755
 13
0.0
 23
0.0
 14
10.0
 24
10.0
 15
10.0
 25
10.0
 16
0.0
 26
0.0
 36
1.0
 17
0.0
 27
0.0
 37
0.0
 40
843.3366756083553
 41
1.664827586206897
 42
50.0
 43
0.0
 44
0.0
 50
0.0
 51
0.0
 71
    16
 72
  1000
 73
     1
 74
     1
 75
     0
 76
     0
 77
     0
 78
     0
281
     0
 65
     1
110
0.0
120
0.0
130
0.0
111
1.0
121
0.0
131
0.0
112
0.0
122
1.0
132
0.0
 79
     0
146
0.0
  0
ENDTAB
  0
TABLE
  2
LTYPE
  5
5
330
0
100
AcDbSymbolTable
 70
     1
  0
LTYPE
  5
14
330
5
100
AcDbSymbolTableRecord
100
AcDbLinetypeTableRecord
  2
ByBlock
 70
     0
  3

 72
    65
 73
     0
 40
0.0
  0
LTYPE
  5
15
330
5
100
AcDbSymbolTableRecord
100
AcDbLinetypeTableRecord
  2
ByLayer
 70
     0
  3

 72
    65
 73
     0
 40
0.0
  0
LTYPE
  5
16
330
5
100
AcDbSymbolTableRecord
100
AcDbLinetypeTableRecord
  2
Continuous
 70
     0
  3
Solid line
 72
    65
 73
     0
 40
0.0
  0
ENDTAB
  0
TABLE
  2
LAYER
  5
2
330
0
100
AcDbSymbolTable
 70
     5
  0
LAYER
  5
10
330
2
100
AcDbSymbolTableRecord
100
AcDbLayerTableRecord
  2
0
 70
     0
 62
     7
  6
Continuous
370
    -3
390
F
  0
LAYER
  5
31
330
2
100
AcDbSymbolTableRecord
100
AcDbLayerTableRecord
  2
DCC
 70
     0
 62
     6
  6
Continuous
370
    -3
390
F
  0
LAYER
  5
32
330
2
100
AcDbSymbolTableRecord
100
AcDbLayerTableRecord
  2
Bedienraum
 70
     0
 62
     2
  6
Continuous
370
    -3
390
F
  0
LAYER
  5
33
330
2
100
AcDbSymbolTableRecord
100
AcDbLayerTableRecord
  2
Info
 70
     0
 62
     3
  6
Continuous
370
    -3
390
F
  0
LAYER
  5
79
330
2
100
AcDbSymbolTableRecord
100
AcDbLayerTableRecord
  2
DEFPOINTS
 70
     0
 62
     7
  6
Continuous
290
     0
370
    -3
390
F
  0
ENDTAB
  0
TABLE
  2
STYLE
  5
3
330
0
100
AcDbSymbolTable
 70
     1
  0
STYLE
  5
11
330
3
100
AcDbSymbolTableRecord
100
AcDbTextStyleTableRecord
  2
Standard
 70
     0
 40
0.0
 41
1.0
 50
0.0
 71
     0
 42
2.5
  3
txt
  4

  0
ENDTAB
  0
TABLE
  2
VIEW
  5
6
330
0
100
AcDbSymbolTable
 70
     0
  0
ENDTAB
  0
TABLE
  2
UCS
  5
7
330
0
100
AcDbSymbolTable
 70
     0
  0
ENDTAB
  0
TABLE
  2
APPID
  5
9
330
0
100
AcDbSymbolTable
 70
     1
  0
APPID
  5
12
330
9
100
AcDbSymbolTableRecord
100
AcDbRegAppTableRecord
  2
ACAD
 70
     0
  0
ENDTAB
  0
TABLE
  2
DIMSTYLE
  5
A
330
0
100
AcDbSymbolTable
 70
     2
100
AcDbDimStyleTable
  0
DIMSTYLE
105
27
330
A
100
AcDbSymbolTableRecord
100
AcDbDimStyleTableRecord
  2
Standard
 70
     0
278
     0
340
11
  0
DIMSTYLE
105
29
102
{ACAD_REACTORS
330
163
330
16F
330
17B
330
187
330
193
330
19C
330
1A8
330
1B9
102
}
330
A
100
AcDbSymbolTableRecord
100
AcDbDimStyleTableRecord
  2
ISO-25
 70
     0
 41
2.5
 42
0.625
 43
3.75
 44
1.25
 73
     0
 74
     0
 77
     1
 78
     8
140
2.5
141
2.5
143
0.03937007874016
147
0.625
171
     3
172
     1
271
     2
272
     2
274
     3
278
    44
283
     0
284
     8
340
11
  0
ENDTAB
  0
TABLE
  2
BLOCK_RECORD
  5
1
330
0
100
AcDbSymbolTable
 70
    26
  0
BLOCK_RECORD
  5
1F
330
1
100
AcDbSymbolTableRecord
100
AcDbBlockTableRecord
  2
*Model_Space
340
22
  0
BLOCK_RECORD
  5
73
330
1
100
AcDbSymbolTableRecord
100
AcDbBlockTableRecord
  2
*Paper_Space
340
74
  0
BLOCK_RECORD
  5
25
330
1
100
AcDbSymbolTableRecord
100
AcDbBlockTableRecord
  2
*Paper_Space0
340
28
  0
BLOCK_RECORD
  5
85
330
1
100
AcDbSymbolTableRecord
100
AcDbBlockTableRecord
  2
*D1
340
0
  0
BLOCK_RECORD
  5
91
330
1
100
AcDbSymbolTableRecord
100
AcDbBlockTableRecord
  2
*D2
340
0
  0
BLOCK_RECORD
  5
9D
330
1
100
AcDbSymbolTableRecord
100
AcDbBlockTableRecord
  2
*D3
340
0
  0
BLOCK_RECORD
  5
A9
330
1
100
AcDbSymbolTableRecord
100
AcDbBlockTableRecord
  2
*D4
340
0
  0
BLOCK_RECORD
  5
B2
330
1
100
AcDbSymbolTableRecord
100
AcDbBlockTableRecord
  2
*D5
340
0
  0
BLOCK_RECORD
  5
BE
330
1
100
AcDbSymbolTableRecord
100
AcDbBlockTableRecord
  2
*D6
340
0
  0
BLOCK_RECORD
  5
CA
330
1
100
AcDbSymbolTableRecord
100
AcDbBlockTableRecord
  2
*D7
340
0
  0
BLOCK_RECORD
  5
D6
330
1
100
AcDbSymbolTableRecord
100
AcDbBlockTableRecord
  2
*D8
340
0
  0
BLOCK_RECORD
  5
EC
330
1
100
AcDbSymbolTableRecord
100
AcDbBlockTableRecord
  2
*D9
340
0
  0
BLOCK_RECORD
  5
F8
330
1
100
AcDbSymbolTableRecord
100
AcDbBlockTableRecord
  2
*D10
340
0
  0
BLOCK_RECORD
  5
104
330
1
100
AcDbSymbolTableRecord
100
AcDbBlockTableRecord
  2
*D11
340
0
  0
BLOCK_RECORD
  5
110
330
1
100
AcDbSymbolTableRecord
100
AcDbBlockTableRecord
  2
*D12
340
0
  0
BLOCK_RECORD
  5
11C
330
1
100
AcDbSymbolTableRecord
100
AcDbBlockTableRecord
  2
*D13
340
0
  0
BLOCK_RECORD
  5
128
330
1
100
AcDbSymbolTableRecord
100
AcDbBlockTableRecord
  2
*D14
340
0
  0
BLOCK_RECORD
  5
131
330
1
100
AcDbSymbolTableRecord
100
AcDbBlockTableRecord
  2
*D15
340
0
  0
BLOCK_RECORD
  5
149
330
1
100
AcDbSymbolTableRecord
100
AcDbBlockTableRecord
  2
*D16
340
0
  0
BLOCK_RECORD
  5
156
330
1
100
AcDbSymbolTableRecord
100
AcDbBlockTableRecord
  2
*D17
340
0
  0
BLOCK_RECORD
  5
16E
330
1
100
AcDbSymbolTableRecord
100
AcDbBlockTableRecord
  2
*D18
340
0
  0
BLOCK_RECORD
  5
17A
330
1
100
AcDbSymbolTableRecord
100
AcDbBlockTableRecord
  2
*D19
340
0
  0
BLOCK_RECORD
  5
186
330
1
100
AcDbSymbolTableRecord
100
AcDbBlockTableRecord
  2
*D20
340
0
  0
BLOCK_RECORD
  5
192
330
1
100
AcDbSymbolTableRecord
100
AcDbBlockTableRecord
  2
*D21
340
0
  0
BLOCK_RECORD
  5
19B
330
1
100
AcDbSymbolTableRecord
100
AcDbBlockTableRecord
  2
*D22
340
0
  0
BLOCK_RECORD
  5
1A7
330
1
100
AcDbSymbolTableRecord
100
AcDbBlockTableRecord
  2
*D23
340
0
  0
BLOCK_RECORD
  5
1B3
330
1
100
AcDbSymbolTableRecord
100
AcDbBlockTableRecord
  2
*D24
340
0
  0
BLOCK_RECORD
  5
1C4
330
1
100
AcDbSymbolTableRecord
100
AcDbBlockTableRecord
  2
*D25
340
0
  0
ENDTAB
  0
ENDSEC
  0
SECTION
  2
BLOCKS
  0
BLOCK
  5
20
330
1F
100
AcDbEntity
  8
0
100
AcDbBlockBegin
  2
*Model_Space
 70
     0
 71
     0
 10
0.0
 20
0.0
 30
0.0
  3
*Model_Space
  1

  0
ENDBLK
  5
21
330
1F
100
AcDbEntity
  8
0
100
AcDbBlockEnd
  0
BLOCK
  5
75
330
73
100
AcDbEntity
 67
     1
  8
0
100
AcDbBlockBegin
  2
*Paper_Space
 70
     0
 71
     0
 10
0.0
 20
0.0
 30
0.0
  3
*Paper_Space
  1

  0
ENDBLK
  5
76
330
73
100
AcDbEntity
 67
     1
  8
0
100
AcDbBlockEnd
  0
BLOCK
  5
1C6
330
25
100
AcDbEntity
  8
0
100
AcDbBlockBegin
  2
*Paper_Space0
 70
     0
 71
     0
 10
0.0
 20
0.0
 30
0.0
  3
*Paper_Space0
  1

  0
ENDBLK
  5
1C7
330
25
100
AcDbEntity
  8
0
100
AcDbBlockEnd
  0
BLOCK
  5
1C8
330
85
100
AcDbEntity
  8
0
100
AcDbBlockBegin
  2
*D1
 70
     1
 71
     0
 10
0.0
 20
0.0
 30
0.0
  3
*D1
  1

  0
POINT
  5
7C
330
85
100
AcDbEntity
  8
DEFPOINTS
  6
ByBlock
 62
     0
100
AcDbPoint
 10
-258.8190451025207
 20
965.9258262890684
 30
0.0
  0
POINT
  5
7D
330
85
100
AcDbEntity
  8
DEFPOINTS
  6
ByBlock
 62
     0
100
AcDbPoint
 10
258.8190451025208
 20
965.9258262890684
 30
0.0
  0
LINE
  5
7E
330
85
100
AcDbEntity
  8
0
  6
ByBlock
 62
     0
370
    -2
100
AcDbLine
 10
-258.8190451025207
 20
966.5508262890684
 30
0.0
 11
-258.8190451025207
 21
1029.891718978033
 31
0.0
  0
LINE
  5
7F
330
85
100
AcDbEntity
  8
0
  6
ByBlock
 62
     0
370
    -2
100
AcDbLine
 10
258.8190451025208
 20
966.5508262890684
 30
0.0
 11
258.8190451025208
 21
1029.891718978033
 31
0.0
  0
LINE
  5
80
330
85
100
AcDbEntity
  8
0
  6
ByBlock
 62
     0
370
    -2
100
AcDbLine
 10
-256.3190451025207
 20
1028.641718978033
 30
0.0
 11
256.3190451025208
 21
1028.641718978033
 31
0.0
  0
SOLID
  5
81
330
85
100
AcDbEntity
  8
0
  6
ByBlock
 62
     0
100
AcDbTrace
 10
-258.8190451025207
 20
1028.641718978033
 30
0.0
 11
-256.3190451025207
 21
1028.225052311366
 31
0.0
 12
-256.3190451025207
 22
1029.0583856447
 32
0.0
 13
-256.3190451025207
 23
1029.0583856447
 33
0.0
  0
SOLID
  5
82
330
85
100
AcDbEntity
  8
0
  6
ByBlock
 62
     0
100
AcDbTrace
 10
258.8190451025208
 20
1028.641718978033
 30
0.0
 11
256.3190451025208
 21
1028.225052311366
 31
0.0
 12
256.3190451025208
 22
1029.0583856447
 32
0.0
 13
256.3190451025208
 23
1029.0583856447
 33
0.0
  0
MTEXT
  5
83
330
85
100
AcDbEntity
  8
0
  6
ByBlock
 62
     0
100
AcDbMText
 10
0.0000000000000568
 20
1030.729218978033
 30
0.0
 40
2.5
 41
0.0
 71
     5
 72
     1
  1
\A1;517,64
 73
     1
 44
1.0
  0
ENDBLK
  5
1C9
330
85
100
AcDbEntity
  8
Info
100
AcDbBlockEnd
  0
BLOCK
  5
1CA
330
91
100
AcDbEntity
  8
0
100
AcDbBlockBegin
  2
*D2
 70
     1
 71
     0
 10
0.0
 20
0.0
 30
0.0
  3
*D2
  1

  0
POINT
  5
88
330
91
100
AcDbEntity
  8
DEFPOINTS
  6
ByBlock
 62
     0
100
AcDbPoint
 10
-258.8190451025207
 20
965.9258262890684
 30
0.0
  0
POINT
  5
89
330
91
100
AcDbEntity
  8
DEFPOINTS
  6
ByBlock
 62
     0
100
AcDbPoint
 10
258.8190451025208
 20
965.9258262890684
 30
0.0
  0
LINE
  5
8A
330
91
100
AcDbEntity
  8
0
  6
ByBlock
 62
     0
370
    -2
100
AcDbLine
 10
-258.8190451025207
 20
966.5508262890684
 30
0.0
 11
-258.8190451025207
 21
1031.728094507668
 31
0.0
  0
LINE
  5
8B
330
91
100
AcDbEntity
  8
0
  6
ByBlock
 62
     0
370
    -2
100
AcDbLine
 10
258.8190451025208
 20
966.5508262890684
 30
0.0
 11
258.8190451025208
 21
1031.728094507668
 31
0.0
  0
LINE
  5
8C
330
91
100
AcDbEntity
  8
0
  6
ByBlock
 62
     0
370
    -2
100
AcDbLine
 10
-256.3190451025207
 20
1030.478094507668
 30
0.0
 11
256.3190451025208
 21
1030.478094507668
 31
0.0
  0
SOLID
  5
8D
330
91
100
AcDbEntity
  8
0
  6
ByBlock
 62
     0
100
AcDbTrace
 10
-258.8190451025207
 20
1030.478094507668
 30
0.0
 11
-256.3190451025207
 21
1030.061427841001
 31
0.0
 12
-256.3190451025207
 22
1030.894761174335
 32
0.0
 13
-256.3190451025207
 23
1030.894761174335
 33
0.0
  0
SOLID
  5
8E
330
91
100
AcDbEntity
  8
0
  6
ByBlock
 62
     0
100
AcDbTrace
 10
258.8190451025208
 20
1030.478094507668
 30
0.0
 11
256.3190451025208
 21
1030.061427841001
 31
0.0
 12
256.3190451025208
 22
1030.894761174335
 32
0.0
 13
256.3190451025208
 23
1030.894761174335
 33
0.0
  0
MTEXT
  5
8F
330
91
100
AcDbEntity
  8
0
  6
ByBlock
 62
     0
100
AcDbMText
 10
0.0000000000000568
 20
1042.803094507668
 30
0.0
 40
20.0
 41
0.0
 71
     5
 72
     1
  1
\A1;517,64
 73
     1
 44
1.0
  0
ENDBLK
  5
1CB
330
91
100
AcDbEntity
  8
Info
100
AcDbBlockEnd
  0
BLOCK
  5
1CC
330
9D
100
AcDbEntity
  8
0
100
AcDbBlockBegin
  2
*D3
 70
     1
 71
     0
 10
0.0
 20
0.0
 30
0.0
  3
*D3
  1

  0
POINT
  5
94
330
9D
100
AcDbEntity
  8
DEFPOINTS
  6
ByBlock
 62
     0
100
AcDbPoint
 10
258.8190451025208
 20
965.9258262890684
 30
0.0
  0
POINT
  5
95
330
9D
100
AcDbEntity
  8
DEFPOINTS
  6
ByBlock
 62
     0
100
AcDbPoint
 10
155.2914270615124
 20
579.5554957734408
 30
0.0
  0
LINE
  5
96
330
9D
100
AcDbEntity
  8
0
  6
ByBlock
 62
     0
370
    -2
100
AcDbLine
 10
259.4227487439514
 20
965.7640643858792
 30
0.0
 11
341.3149349210197
 21
943.8211192333147
 31
0.0
  0
LINE
  5
1FA
330
9D
100
AcDbEntity
  8
0
  6
ByBlock
 62
     0
370
    -2
100
AcDbLine
 10
155.8951307029431
 20
579.3937338702517
 30
0.0
 11
237.7873168800114
 21
557.4507887176872
 31
0.0
  0
LINE
  5
1FB
330
9D
100
AcDbEntity
  8
0
  6
ByBlock
 62
     0
370
    -2
100
AcDbLine
 10
339.4604800254021
 20
941.7298284739702
 30
0.0
 11
237.2269572099064
 21
560.189127089788
 31
0.0
  0
SOLID
  5
99
330
9D
100
AcDbEntity
  8
0
  6
ByBlock
 62
     0
100
AcDbTrace
 10
340.1075276381584
 20
944.1446430396928
 30
0.0
 11
339.0580109311149
 21
941.837669742763
 31
0.0
 12
339.8629491196893
 22
941.6219872051775
 32
0.0
 13
339.8629491196893
 23
941.6219872051775
 33
0.0
  0
SOLID
  5
9A
330
9D
100
AcDbEntity
  8
0
  6
ByBlock
 62
     0
100
AcDbTrace
 10
236.5799095971501
 20
557.7743125240653
 30
0.0
 11
236.8244881156192
 21
560.2969683585807
 31
0.0
 12
237.6294263041936
 22
560.0812858209953
 32
0.0
 13
237.6294263041936
 23
560.0812858209953
 33
0.0
  0
MTEXT
  5
9B
330
9D
100
AcDbEntity
  8
0
  6
ByBlock
 62
     0
100
AcDbMText
 10
278.0807567133329
 20
753.7094301360934
 30
0.0
 40
20.0
 41
0.0
 71
     5
 72
     1
  1
\A1;400
 11
0.2588190451025205
 21
0.9659258262890683
 31
0.0
 73
     1
 44
1.0
  0
ENDBLK
  5
1CD
330
9D
100
AcDbEntity
  8
Info
100
AcDbBlockEnd
  0
BLOCK
  5
1CE
330
A9
100
AcDbEntity
  8
0
100
AcDbBlockBegin
  2
*D4
 70
     1
 71
     0
 10
0.0
 20
0.0
 30
0.0
  3
*D4
  1

  0
POINT
  5
A0
330
A9
100
AcDbEntity
  8
DEFPOINTS
  6
ByBlock
 62
     0
100
AcDbPoint
 10
-258.8190451025207
 20
965.9258262890684
 30
0.0
  0
POINT
  5
A1
330
A9
100
AcDbEntity
  8
DEFPOINTS
  6
ByBlock
 62
     0
100
AcDbPoint
 10
-155.2914270615118
 20
579.5554957734389
 30
0.0
  0
LINE
  5
A2
330
A9
100
AcDbEntity
  8
0
  6
ByBlock
 62
     0
370
    -2
100
AcDbLine
 10
-259.4227487439513
 20
965.7640643858792
 30
0.0
 11
-333.0860953466477
 21
946.0260301519129
 31
0.0
  0
LINE
  5
A3
330
A9
100
AcDbEntity
  8
0
  6
ByBlock
 62
     0
370
    -2
100
AcDbLine
 10
-155.8951307029425
 20
579.3937338702498
 30
0.0
 11
-229.558477305639
 21
559.6556996362834
 31
0.0
  0
LINE
  5
A4
330
A9
100
AcDbEntity
  8
0
  6
ByBlock
 62
     0
370
    -2
100
AcDbLine
 10
-331.2316404510301
 20
943.9347393925684
 30
0.0
 11
-228.998117635534
 21
562.3940380083842
 31
0.0
  0
SOLID
  5
A5
330
A9
100
AcDbEntity
  8
0
  6
ByBlock
 62
     0
100
AcDbTrace
 10
-331.8786880637864
 20
946.349553958291
 30
0.0
 11
-331.6341095453173
 21
943.8268981237757
 31
0.0
 12
-330.8291713567429
 22
944.0425806613612
 32
0.0
 13
-330.8291713567429
 23
944.0425806613612
 33
0.0
  0
SOLID
  5
A6
330
A9
100
AcDbEntity
  8
0
  6
ByBlock
 62
     0
100
AcDbTrace
 10
-228.3510700227777
 20
559.9792234426616
 30
0.0
 11
-229.4005867298212
 21
562.2861967395916
 31
0.0
 12
-228.5956485412468
 22
562.501879277177
 32
0.0
 13
-228.5956485412468
 23
562.501879277177
 33
0.0
  0
MTEXT
  5
A7
330
A9
100
AcDbEntity
  8
0
  6
ByBlock
 62
     0
100
AcDbMText
 10
-269.8519171389607
 20
755.9143410546906
 30
0.0
 40
20.0
 41
0.0
 71
     5
 72
     1
  1
\A1;400
 11
0.2588190451025203
 21
-0.9659258262890684
 31
0.0
 73
     1
 44
1.0
  0
ENDBLK
  5
1CF
330
A9
100
AcDbEntity
  8
Info
100
AcDbBlockEnd
  0
BLOCK
  5
1D0
330
B2
100
AcDbEntity
  8
0
100
AcDbBlockBegin
  2
*D5
 70
     1
 71
     0
 10
0.0
 20
0.0
 30
0.0
  3
*D5
  1

  0
LINE
  5
AC
330
B2
100
AcDbEntity
  8
0
  6
ByBlock
 62
     0
370
    -2
100
AcDbLine
 10
124.3442170445537
 20
787.7466380046209
 30
0.0
 11
104.9404468737076
 21
664.8196931092123
 31
0.0
  0
SOLID
  5
AD
330
B2
100
AcDbEntity
  8
0
  6
ByBlock
 62
     0
100
AcDbTrace
 10
124.7340108283924
 20
790.2160632021275
 30
0.0
 11
124.7557879108049
 21
787.6816723739811
 31
0.0
 12
123.9326461783025
 22
787.8116036352607
 32
0.0
 13
123.9326461783025
 23
787.8116036352607
 33
0.0
  0
MTEXT
  5
AE
330
B2
100
AcDbEntity
  8
0
  6
ByBlock
 62
     0
100
AcDbMText
 10
99.73489143099582
 20
699.9864166206919
 30
0.0
 40
20.0
 41
0.0
 71
     5
 72
     1
  1
\A1;R800
 11
0.1559175135354878
 21
0.9877700790026548
 31
0.0
 73
     1
 44
1.0
  0
POINT
  5
AF
330
B2
100
AcDbEntity
  8
DEFPOINTS
  6
ByBlock
 62
     0
100
AcDbPoint
 10
0.0000000000018677
 20
-0.0000000000006605
 30
0.0
  0
POINT
  5
B0
330
B2
100
AcDbEntity
  8
DEFPOINTS
  6
ByBlock
 62
     0
100
AcDbPoint
 10
124.7340108283924
 20
790.2160632021275
 30
0.0
  0
ENDBLK
  5
1D1
330
B2
100
AcDbEntity
  8
Info
100
AcDbBlockEnd
  0
BLOCK
  5
1D2
330
BE
100
AcDbEntity
  8
0
100
AcDbBlockBegin
  2
*D6
 70
     1
 71
     0
 10
0.0
 20
0.0
 30
0.0
  3
*D6
  1

  0
MTEXT
  5
B5
330
BE
100
AcDbEntity
  8
0
  6
ByBlock
 62
     0
100
AcDbMText
 10
-108.3265081532254
 20
640.7613697281478
 30
0.0
 40
20.0
 41
0.0
 71
     5
 72
     1
  1
\A1;105,00%%d
 11
0.7933533402912378
 21
-0.6087614290087172
 31
0.0
 73
     1
 44
1.0
  0
POINT
  5
B6
330
BE
100
AcDbEntity
  8
DEFPOINTS
  6
ByBlock
 62
     0
100
AcDbPoint
 10
-258.8190451025207
 20
965.9258262890684
 30
0.0
  0
POINT
  5
B7
330
BE
100
AcDbEntity
  8
DEFPOINTS
  6
ByBlock
 62
     0
100
AcDbPoint
 10
-155.2914270615205
 20
579.5554957734388
 30
0.0
  0
POINT
  5
B8
330
BE
100
AcDbEntity
  8
DEFPOINTS
  6
ByBlock
 62
     0
100
AcDbPoint
 10
155.2914270615123
 20
579.555495773441
 30
0.0
  0
POINT
  5
B9
330
BE
100
AcDbEntity
  8
DEFPOINTS
  6
ByBlock
 62
     0
100
AcDbPoint
 10
-155.2914270615118
 20
579.5554957734389
 30
0.0
  0
SOLID
  5
BA
330
BE
100
AcDbEntity
  8
0
  6
ByBlock
 62
     0
100
AcDbTrace
 10
-88.76811136621198
 20
579.5554957734393
 30
0.0
 11
-89.23168047904993
 21
582.0472250502135
 31
0.0
 12
-88.39849427507768
 22
582.0628837204974
 32
0.0
 13
-88.39849427507768
 23
582.0628837204974
 33
0.0
  0
SOLID
  5
BB
330
BE
100
AcDbEntity
  8
0
  6
ByBlock
 62
     0
100
AcDbTrace
 10
-172.5089281068228
 20
643.8120844539097
 30
0.0
 11
-170.1826412748143
 21
644.8180669022333
 31
0.0
 12
-169.9821219311423
 22
644.0092180676184
 32
0.0
 13
-169.9821219311423
 23
644.0092180676184
 33
0.0
  0
ARC
  5
BC
330
BE
100
AcDbEntity
  8
0
  6
ByBlock
 62
     0
370
    -2
100
AcDbCircle
 10
-155.2914270615118
 20
579.5554957734388
 30
0.0
 40
66.52331569529979
100
AcDbArc
 50
2.153348457940403
 51
102.84665154206
  0
ENDBLK
  5
1D3
330
BE
100
AcDbEntity
  8
Info
100
AcDbBlockEnd
  0
BLOCK
  5
1D4
330
CA
100
AcDbEntity
  8
0
100
AcDbBlockBegin
  2
*D7
 70
     1
 71
     0
 10
0.0
 20
0.0
 30
0.0
  3
*D7
  1

  0
MTEXT
  5
C1
330
CA
100
AcDbEntity
  8
0
  6
ByBlock
 62
     0
100
AcDbMText
 10
107.4528291485612
 20
641.8999703747469
 30
0.0
 40
20.0
 41
0.0
 71
     5
 72
     1
  1
\A1;105,00%%d
 11
0.7933533402912329
 21
0.6087614290087235
 31
0.0
 73
     1
 44
1.0
  0
POINT
  5
C2
330
CA
100
AcDbEntity
  8
DEFPOINTS
  6
ByBlock
 62
     0
100
AcDbPoint
 10
258.8190451025208
 20
965.9258262890684
 30
0.0
  0
POINT
  5
C3
330
CA
100
AcDbEntity
  8
DEFPOINTS
  6
ByBlock
 62
     0
100
AcDbPoint
 10
-155.2914270615205
 20
579.5554957734388
 30
0.0
  0
POINT
  5
C4
330
CA
100
AcDbEntity
  8
DEFPOINTS
  6
ByBlock
 62
     0
100
AcDbPoint
 10
155.2914270615123
 20
579.555495773441
 30
0.0
  0
POINT
  5
C5
330
CA
100
AcDbEntity
  8
DEFPOINTS
  6
ByBlock
 62
     0
100
AcDbPoint
 10
155.2914270615124
 20
579.5554957734408
 30
0.0
  0
SOLID
  5
C6
330
CA
100
AcDbEntity
  8
0
  6
ByBlock
 62
     0
100
AcDbTrace
 10
172.8803786536847
 20
645.1983567672976
 30
0.0
 11
170.3536509177544
 21
645.396493234389
 31
0.0
 12
170.5544912711857
 22
646.205262420794
 32
0.0
 13
170.5544912711857
 23
646.205262420794
 33
0.0
  0
SOLID
  5
C7
330
CA
100
AcDbEntity
  8
0
  6
ByBlock
 62
     0
100
AcDbTrace
 10
87.3329366606025
 20
579.5554957734405
 30
0.0
 11
86.96232443660813
 21
582.0627368249825
 31
0.0
 12
87.79551678975673
 22
582.0474088407891
 32
0.0
 13
87.79551678975673
 23
582.0474088407891
 33
0.0
  0
ARC
  5
C8
330
CA
100
AcDbEntity
  8
0
  6
ByBlock
 62
     0
370
    -2
100
AcDbCircle
 10
155.2914270615124
 20
579.555495773441
 30
0.0
 40
67.9584904009099
100
AcDbArc
 50
77.10786799491699
 51
177.8921320050834
  0
ENDBLK
  5
1D5
330
CA
100
AcDbEntity
  8
Info
100
AcDbBlockEnd
  0
BLOCK
  5
1D6
330
D6
100
AcDbEntity
  8
0
100
AcDbBlockBegin
  2
*D8
 70
     1
 71
     0
 10
0.0
 20
0.0
 30
0.0
  3
*D8
  1

  0
POINT
  5
CD
330
D6
100
AcDbEntity
  8
DEFPOINTS
  6
ByBlock
 62
     0
100
AcDbPoint
 10
-155.8951307029425
 20
579.3937338702498
 30
0.0
  0
POINT
  5
CE
330
D6
100
AcDbEntity
  8
DEFPOINTS
  6
ByBlock
 62
     0
100
AcDbPoint
 10
155.8951307029431
 20
579.3937338702517
 30
0.0
  0
LINE
  5
CF
330
D6
100
AcDbEntity
  8
0
  6
ByBlock
 62
     0
370
    -2
100
AcDbLine
 10
-155.8951307029425
 20
578.7687338702498
 30
0.0
 11
-155.8951307029425
 21
484.0351754309284
 31
0.0
  0
LINE
  5
D0
330
D6
100
AcDbEntity
  8
0
  6
ByBlock
 62
     0
370
    -2
100
AcDbLine
 10
155.8951307029431
 20
578.7687338702517
 30
0.0
 11
155.8951307029431
 21
484.0351754309284
 31
0.0
  0
LINE
  5
D1
330
D6
100
AcDbEntity
  8
0
  6
ByBlock
 62
     0
370
    -2
100
AcDbLine
 10
-153.3951307029425
 20
485.2851754309284
 30
0.0
 11
153.3951307029431
 21
485.2851754309284
 31
0.0
  0
SOLID
  5
D2
330
D6
100
AcDbEntity
  8
0
  6
ByBlock
 62
     0
100
AcDbTrace
 10
-155.8951307029425
 20
485.2851754309284
 30
0.0
 11
-153.3951307029425
 21
484.8685087642616
 31
0.0
 12
-153.3951307029425
 22
485.7018420975951
 32
0.0
 13
-153.3951307029425
 23
485.7018420975951
 33
0.0
  0
SOLID
  5
D3
330
D6
100
AcDbEntity
  8
0
  6
ByBlock
 62
     0
100
AcDbTrace
 10
155.8951307029431
 20
485.2851754309284
 30
0.0
 11
153.3951307029431
 21
484.8685087642616
 31
0.0
 12
153.3951307029431
 22
485.7018420975951
 32
0.0
 13
153.3951307029431
 23
485.7018420975951
 33
0.0
  0
MTEXT
  5
D4
330
D6
100
AcDbEntity
  8
0
  6
ByBlock
 62
     0
100
AcDbMText
 10
0.0000000000003126
 20
497.6101754309283
 30
0.0
 40
20.0
 41
0.0
 71
     5
 72
     1
  1
\A1;311,79
 73
     1
 44
1.0
  0
ENDBLK
  5
1D7
330
D6
100
AcDbEntity
  8
Info
100
AcDbBlockEnd
  0
BLOCK
  5
1D8
330
EC
100
AcDbEntity
  8
0
100
AcDbBlockBegin
  2
*D9
 70
     1
 71
     0
 10
0.0
 20
0.0
 30
0.0
  3
*D9
  1

  0
POINT
  5
E3
330
EC
100
AcDbEntity
  8
DEFPOINTS
  6
ByBlock
 62
     0
100
AcDbPoint
 10
-310.5828541230247
 20
1159.110991546882
 30
0.0
  0
POINT
  5
E4
330
EC
100
AcDbEntity
  8
DEFPOINTS
  6
ByBlock
 62
     0
100
AcDbPoint
 10
310.5828541230249
 20
1159.110991546882
 30
0.0
  0
LINE
  5
E5
330
EC
100
AcDbEntity
  8
0
  6
ByBlock
 62
     0
370
    -2
100
AcDbLine
 10
-310.5828541230247
 20
1159.735991546882
 30
0.0
 11
-310.5828541230247
 21
1212.660250069398
 31
0.0
  0
LINE
  5
E6
330
EC
100
AcDbEntity
  8
0
  6
ByBlock
 62
     0
370
    -2
100
AcDbLine
 10
310.582854123025
 20
1159.735991546882
 30
0.0
 11
310.582854123025
 21
1212.660250069398
 31
0.0
  0
LINE
  5
E7
330
EC
100
AcDbEntity
  8
0
  6
ByBlock
 62
     0
370
    -2
100
AcDbLine
 10
-308.0828541230247
 20
1211.410250069398
 30
0.0
 11
308.082854123025
 21
1211.410250069398
 31
0.0
  0
SOLID
  5
E8
330
EC
100
AcDbEntity
  8
0
  6
ByBlock
 62
     0
100
AcDbTrace
 10
-310.5828541230247
 20
1211.410250069398
 30
0.0
 11
-308.0828541230247
 21
1210.993583402732
 31
0.0
 12
-308.0828541230247
 22
1211.826916736065
 32
0.0
 13
-308.0828541230247
 23
1211.826916736065
 33
0.0
  0
SOLID
  5
E9
330
EC
100
AcDbEntity
  8
0
  6
ByBlock
 62
     0
100
AcDbTrace
 10
310.582854123025
 20
1211.410250069398
 30
0.0
 11
308.082854123025
 21
1210.993583402732
 31
0.0
 12
308.082854123025
 22
1211.826916736065
 32
0.0
 13
308.082854123025
 23
1211.826916736065
 33
0.0
  0
MTEXT
  5
EA
330
EC
100
AcDbEntity
  8
0
  6
ByBlock
 62
     0
100
AcDbMText
 10
0.0000000000001137
 20
1223.735250069399
 30
0.0
 40
20.0
 41
0.0
 71
     5
 72
     1
  1
\A1;621,17
 73
     1
 44
1.0
  0
ENDBLK
  5
1D9
330
EC
100
AcDbEntity
  8
Info
100
AcDbBlockEnd
  0
BLOCK
  5
1DA
330
F8
100
AcDbEntity
  8
0
100
AcDbBlockBegin
  2
*D10
 70
     1
 71
     0
 10
0.0
 20
0.0
 30
0.0
  3
*D10
  1

  0
POINT
  5
EF
330
F8
100
AcDbEntity
  8
DEFPOINTS
  6
ByBlock
 62
     0
100
AcDbPoint
 10
-207.0552360820157
 20
772.7406610312519
 30
0.0
  0
POINT
  5
F0
330
F8
100
AcDbEntity
  8
DEFPOINTS
  6
ByBlock
 62
     0
100
AcDbPoint
 10
207.0552360820166
 20
772.7406610312547
 30
0.0
  0
LINE
  5
F1
330
F8
100
AcDbEntity
  8
0
  6
ByBlock
 62
     0
370
    -2
100
AcDbLine
 10
-207.0552360820157
 20
772.1156610312519
 30
0.0
 11
-207.0552360820157
 21
699.7158906700776
 31
0.0
  0
LINE
  5
F2
330
F8
100
AcDbEntity
  8
0
  6
ByBlock
 62
     0
370
    -2
100
AcDbLine
 10
207.0552360820166
 20
772.1156610312547
 30
0.0
 11
207.0552360820166
 21
699.7158906700776
 31
0.0
  0
LINE
  5
F3
330
F8
100
AcDbEntity
  8
0
  6
ByBlock
 62
     0
370
    -2
100
AcDbLine
 10
-204.5552360820157
 20
700.9658906700776
 30
0.0
 11
204.5552360820166
 21
700.9658906700776
 31
0.0
  0
SOLID
  5
F4
330
F8
100
AcDbEntity
  8
0
  6
ByBlock
 62
     0
100
AcDbTrace
 10
-207.0552360820157
 20
700.9658906700776
 30
0.0
 11
-204.5552360820157
 21
700.5492240034108
 31
0.0
 12
-204.5552360820157
 22
701.3825573367443
 32
0.0
 13
-204.5552360820157
 23
701.3825573367443
 33
0.0
  0
SOLID
  5
F5
330
F8
100
AcDbEntity
  8
0
  6
ByBlock
 62
     0
100
AcDbTrace
 10
207.0552360820166
 20
700.9658906700776
 30
0.0
 11
204.5552360820166
 21
700.5492240034108
 31
0.0
 12
204.5552360820166
 22
701.3825573367443
 32
0.0
 13
204.5552360820166
 23
701.3825573367443
 33
0.0
  0
MTEXT
  5
F6
330
F8
100
AcDbEntity
  8
0
  6
ByBlock
 62
     0
100
AcDbMText
 10
0.0000000000004263
 20
713.2908906700775
 30
0.0
 40
20.0
 41
0.0
 71
     5
 72
     1
  1
\A1;414,11
 73
     1
 44
1.0
  0
ENDBLK
  5
1DB
330
F8
100
AcDbEntity
  8
Info
100
AcDbBlockEnd
  0
BLOCK
  5
1DC
330
104
100
AcDbEntity
  8
0
100
AcDbBlockBegin
  2
*D11
 70
     1
 71
     0
 10
0.0
 20
0.0
 30
0.0
  3
*D11
  1

  0
POINT
  5
FB
330
104
100
AcDbEntity
  8
DEFPOINTS
  6
ByBlock
 62
     0
100
AcDbPoint
 10
310.5828541230249
 20
1159.110991546882
 30
0.0
  0
POINT
  5
FC
330
104
100
AcDbEntity
  8
DEFPOINTS
  6
ByBlock
 62
     0
100
AcDbPoint
 10
207.0552360820166
 20
772.7406610312547
 30
0.0
  0
LINE
  5
FD
330
104
100
AcDbEntity
  8
0
  6
ByBlock
 62
     0
370
    -2
100
AcDbLine
 10
311.1865577644556
 20
1158.949229643693
 30
0.0
 11
393.7190184481961
 21
1136.834723454131
 31
0.0
  0
LINE
  5
FE
330
104
100
AcDbEntity
  8
0
  6
ByBlock
 62
     0
370
    -2
100
AcDbLine
 10
207.6589397234473
 20
772.5788991280656
 30
0.0
 11
290.1914004071879
 21
750.4643929385039
 31
0.0
  0
LINE
  5
FF
330
104
100
AcDbEntity
  8
0
  6
ByBlock
 62
     0
370
    -2
100
AcDbLine
 10
391.8645635525785
 20
1134.743432694787
 30
0.0
 11
289.6310407370829
 21
753.2027313106048
 31
0.0
  0
SOLID
  5
100
330
104
100
AcDbEntity
  8
0
  6
ByBlock
 62
     0
100
AcDbTrace
 10
392.5116111653348
 20
1137.158247260509
 30
0.0
 11
391.4620944582913
 21
1134.851273963579
 31
0.0
 12
392.2670326468657
 22
1134.635591425994
 32
0.0
 13
392.2670326468657
 23
1134.635591425994
 33
0.0
  0
SOLID
  5
101
330
104
100
AcDbEntity
  8
0
  6
ByBlock
 62
     0
100
AcDbTrace
 10
288.9839931243266
 20
750.7879167448821
 30
0.0
 11
289.2285716427957
 21
753.3105725793976
 31
0.0
 12
290.0335098313701
 22
753.0948900418121
 32
0.0
 13
290.0335098313701
 23
753.0948900418121
 33
0.0
  0
MTEXT
  5
102
330
104
100
AcDbEntity
  8
0
  6
ByBlock
 62
     0
100
AcDbMText
 10
330.4848402405093
 20
946.72303435691
 30
0.0
 40
20.0
 41
0.0
 71
     5
 72
     1
  1
\A1;400
 11
0.2588190451025205
 21
0.9659258262890683
 31
0.0
 73
     1
 44
1.0
  0
ENDBLK
  5
1DD
330
104
100
AcDbEntity
  8
Info
100
AcDbBlockEnd
  0
BLOCK
  5
1DE
330
110
100
AcDbEntity
  8
0
100
AcDbBlockBegin
  2
*D12
 70
     1
 71
     0
 10
0.0
 20
0.0
 30
0.0
  3
*D12
  1

  0
POINT
  5
107
330
110
100
AcDbEntity
  8
DEFPOINTS
  6
ByBlock
 62
     0
100
AcDbPoint
 10
-310.5828541230247
 20
1159.110991546882
 30
0.0
  0
POINT
  5
108
330
110
100
AcDbEntity
  8
DEFPOINTS
  6
ByBlock
 62
     0
100
AcDbPoint
 10
-207.0552360820157
 20
772.7406610312519
 30
0.0
  0
LINE
  5
109
330
110
100
AcDbEntity
  8
0
  6
ByBlock
 62
     0
370
    -2
100
AcDbLine
 10
-311.1865577644554
 20
1158.949229643693
 30
0.0
 11
-395.3715523798292
 21
1136.391928321685
 31
0.0
  0
LINE
  5
10A
330
110
100
AcDbEntity
  8
0
  6
ByBlock
 62
     0
370
    -2
100
AcDbLine
 10
-207.6589397234464
 20
772.5788991280629
 30
0.0
 11
-291.8439343388204
 21
750.021597806055
 31
0.0
  0
LINE
  5
10B
330
110
100
AcDbEntity
  8
0
  6
ByBlock
 62
     0
370
    -2
100
AcDbLine
 10
-393.5170974842116
 20
1134.300637562341
 30
0.0
 11
-291.2835746687154
 21
752.7599361781558
 31
0.0
  0
SOLID
  5
10C
330
110
100
AcDbEntity
  8
0
  6
ByBlock
 62
     0
100
AcDbTrace
 10
-394.1641450969679
 20
1136.715452128063
 30
0.0
 11
-393.9195665784988
 21
1134.192796293548
 31
0.0
 12
-393.1146283899244
 22
1134.408478831133
 32
0.0
 13
-393.1146283899244
 23
1134.408478831133
 33
0.0
  0
SOLID
  5
10D
330
110
100
AcDbEntity
  8
0
  6
ByBlock
 62
     0
100
AcDbTrace
 10
-290.6365270559591
 20
750.3451216124331
 30
0.0
 11
-291.6860437630025
 21
752.6520949093631
 31
0.0
 12
-290.8811055744282
 22
752.8677774469486
 32
0.0
 13
-290.8811055744282
 23
752.8677774469486
 33
0.0
  0
MTEXT
  5
10E
330
110
100
AcDbEntity
  8
0
  6
ByBlock
 62
     0
100
AcDbMText
 10
-332.1373741721421
 20
946.2802392244624
 30
0.0
 40
20.0
 41
0.0
 71
     5
 72
     1
  1
\A1;400
 11
0.2588190451025203
 21
-0.9659258262890684
 31
0.0
 73
     1
 44
1.0
  0
ENDBLK
  5
1DF
330
110
100
AcDbEntity
  8
Info
100
AcDbBlockEnd
  0
BLOCK
  5
1E0
330
11C
100
AcDbEntity
  8
0
100
AcDbBlockBegin
  2
*D13
 70
     1
 71
     0
 10
0.0
 20
0.0
 30
0.0
  3
*D13
  1

  0
MTEXT
  5
113
330
11C
100
AcDbEntity
  8
0
  6
ByBlock
 62
     0
100
AcDbMText
 10
-158.8219792682489
 20
835.599465125719
 30
0.0
 40
20.0
 41
0.0
 71
     5
 72
     1
  1
\A1;105,00%%d
 11
0.7933533402912373
 21
-0.6087614290087179
 31
0.0
 73
     1
 44
1.0
  0
POINT
  5
114
330
11C
100
AcDbEntity
  8
DEFPOINTS
  6
ByBlock
 62
     0
100
AcDbPoint
 10
207.0552360820165
 20
772.7406610312546
 30
0.0
  0
POINT
  5
115
330
11C
100
AcDbEntity
  8
DEFPOINTS
  6
ByBlock
 62
     0
100
AcDbPoint
 10
-207.0552360820157
 20
772.7406610312519
 30
0.0
  0
POINT
  5
116
330
11C
100
AcDbEntity
  8
DEFPOINTS
  6
ByBlock
 62
     0
100
AcDbPoint
 10
-310.5828541230247
 20
1159.110991546882
 30
0.0
  0
POINT
  5
117
330
11C
100
AcDbEntity
  8
DEFPOINTS
  6
ByBlock
 62
     0
100
AcDbPoint
 10
-207.0552360820273
 20
772.7406610312518
 30
0.0
  0
SOLID
  5
118
330
11C
100
AcDbEntity
  8
0
  6
ByBlock
 62
     0
100
AcDbTrace
 10
-224.8119795791659
 20
839.0097299395845
 30
0.0
 11
-222.4862672710985
 21
840.0170399073774
 31
0.0
 12
-222.2852863252233
 22
839.2083056470423
 32
0.0
 13
-222.2852863252233
 23
839.2083056470423
 33
0.0
  0
SOLID
  5
119
330
11C
100
AcDbEntity
  8
0
  6
ByBlock
 62
     0
100
AcDbTrace
 10
-138.4484475432644
 20
772.7406610312522
 30
0.0
 11
-138.9105944742097
 21
775.2326544753305
 31
0.0
 12
-138.077399469052
 22
775.2478376181193
 32
0.0
 13
-138.077399469052
 23
775.2478376181193
 33
0.0
  0
ARC
  5
11A
330
11C
100
AcDbEntity
  8
0
  6
ByBlock
 62
     0
370
    -2
100
AcDbCircle
 10
-207.0552360820157
 20
772.7406610312518
 30
0.0
 40
68.60678853875133
100
AcDbArc
 50
2.087947533774464
 51
102.912052466226
  0
ENDBLK
  5
1E1
330
11C
100
AcDbEntity
  8
Info
100
AcDbBlockEnd
  0
BLOCK
  5
1E2
330
128
100
AcDbEntity
  8
0
100
AcDbBlockBegin
  2
*D14
 70
     1
 71
     0
 10
0.0
 20
0.0
 30
0.0
  3
*D14
  1

  0
MTEXT
  5
11F
330
128
100
AcDbEntity
  8
0
  6
ByBlock
 62
     0
100
AcDbMText
 10
154.1967218728734
 20
841.6272179192971
 30
0.0
 40
20.0
 41
0.0
 71
     5
 72
     1
  1
\A1;105,00%%d
 11
0.7933533402912335
 21
0.6087614290087229
 31
0.0
 73
     1
 44
1.0
  0
POINT
  5
120
330
128
100
AcDbEntity
  8
DEFPOINTS
  6
ByBlock
 62
     0
100
AcDbPoint
 10
310.5828541230249
 20
1159.110991546882
 30
0.0
  0
POINT
  5
121
330
128
100
AcDbEntity
  8
DEFPOINTS
  6
ByBlock
 62
     0
100
AcDbPoint
 10
-207.0552360820273
 20
772.7406610312518
 30
0.0
  0
POINT
  5
122
330
128
100
AcDbEntity
  8
DEFPOINTS
  6
ByBlock
 62
     0
100
AcDbPoint
 10
207.0552360820165
 20
772.7406610312546
 30
0.0
  0
POINT
  5
123
330
128
100
AcDbEntity
  8
DEFPOINTS
  6
ByBlock
 62
     0
100
AcDbPoint
 10
207.0552360820166
 20
772.7406610312547
 30
0.0
  0
SOLID
  5
124
330
128
100
AcDbEntity
  8
0
  6
ByBlock
 62
     0
100
AcDbTrace
 10
226.7784390908574
 20
846.3486567482439
 30
0.0
 11
224.2521107863012
 21
846.5518227117052
 31
0.0
 12
224.4545607368593
 22
847.3601904881311
 32
0.0
 13
224.4545607368593
 23
847.3601904881311
 33
0.0
  0
SOLID
  5
125
330
128
100
AcDbEntity
  8
0
  6
ByBlock
 62
     0
100
AcDbTrace
 10
130.8506314284901
 20
772.7406610312542
 30
0.0
 11
130.4750288414865
 21
775.2471593471817
 31
0.0
 12
131.3082500567607
 22
775.2334900069704
 32
0.0
 13
131.3082500567607
 23
775.2334900069704
 33
0.0
  0
ARC
  5
126
330
128
100
AcDbEntity
  8
0
  6
ByBlock
 62
     0
370
    -2
100
AcDbCircle
 10
207.0552360820166
 20
772.7406610312546
 30
0.0
 40
76.20460465352647
100
AcDbArc
 50
76.87975350927064
 51
178.1202464907297
  0
ENDBLK
  5
1E3
330
128
100
AcDbEntity
  8
Info
100
AcDbBlockEnd
  0
BLOCK
  5
1E4
330
131
100
AcDbEntity
  8
0
100
AcDbBlockBegin
  2
*D15
 70
     1
 71
     0
 10
0.0
 20
0.0
 30
0.0
  3
*D15
  1

  0
LINE
  5
12B
330
131
100
AcDbEntity
  8
0
  6
ByBlock
 62
     0
370
    -2
100
AcDbLine
 10
104.4713471453548
 20
992.0141065658505
 30
0.0
 11
88.41946178773699
 21
839.5924412303788
 31
0.0
  0
SOLID
  5
12C
330
131
100
AcDbEntity
  8
0
  6
ByBlock
 62
     0
100
AcDbTrace
 10
104.7331800955938
 20
994.5003574594992
 30
0.0
 11
104.8857222942964
 21
991.9704677408107
 31
0.0
 12
104.0569719964133
 22
992.0577453908903
 32
0.0
 13
104.0569719964133
 23
992.0577453908903
 33
0.0
  0
MTEXT
  5
12D
330
131
100
AcDbEntity
  8
0
  6
ByBlock
 62
     0
100
AcDbMText
 10
81.9296345249507
 20
879.4161576830053
 30
0.0
 40
20.0
 41
0.0
 71
     5
 72
     1
  1
\A1;R1000
 11
0.1047331800955906
 21
0.9945003574594956
 31
0.0
 73
     1
 44
1.0
  0
POINT
  5
12E
330
131
100
AcDbEntity
  8
DEFPOINTS
  6
ByBlock
 62
     0
100
AcDbPoint
 10
0.0000000000028015
 20
-0.0000000000004265
 30
0.0
  0
POINT
  5
12F
330
131
100
AcDbEntity
  8
DEFPOINTS
  6
ByBlock
 62
     0
100
AcDbPoint
 10
104.7331800955938
 20
994.5003574594992
 30
0.0
  0
ENDBLK
  5
1E5
330
131
100
AcDbEntity
  8
Info
100
AcDbBlockEnd
  0
BLOCK
  5
1E6
330
149
100
AcDbEntity
  8
0
100
AcDbBlockBegin
  2
*D16
 70
     1
 71
     0
 10
0.0
 20
0.0
 30
0.0
  3
*D16
  1

  0
MTEXT
  5
140
330
149
100
AcDbEntity
  8
0
  6
ByBlock
 62
     0
100
AcDbMText
 10
0.0000000000000626
 20
119.5721482449447
 30
0.0
 40
20.0
 41
0.0
 71
     5
 72
     1
  1
\A1;28,75%%d
 73
     1
 44
1.0
  0
POINT
  5
141
330
149
100
AcDbEntity
  8
DEFPOINTS
  6
ByBlock
 62
     0
100
AcDbPoint
 10
180.0
 20
-200.0
 30
0.0
  0
POINT
  5
142
330
149
100
AcDbEntity
  8
DEFPOINTS
  6
ByBlock
 62
     0
100
AcDbPoint
 10
-282.5
 20
200.0
 30
0.0
  0
POINT
  5
143
330
149
100
AcDbEntity
  8
DEFPOINTS
  6
ByBlock
 62
     0
100
AcDbPoint
 10
-180.0
 20
-200.0
 30
0.0
  0
POINT
  5
144
330
149
100
AcDbEntity
  8
DEFPOINTS
  6
ByBlock
 62
     0
100
AcDbPoint
 10
282.5
 20
200.0
 30
0.0
  0
SOLID
  5
145
330
149
100
AcDbEntity
  8
0
  6
ByBlock
 62
     0
100
AcDbTrace
 10
251.0560697538849
 20
77.29197952735596
 30
0.0
 11
248.5306215028332
 21
77.50580712700293
 31
0.0
 12
248.7364817108837
 22
78.31331317601192
 32
0.0
 13
248.7364817108837
 23
78.31331317601192
 33
0.0
  0
SOLID
  5
146
330
149
100
AcDbEntity
  8
0
  6
ByBlock
 62
     0
100
AcDbTrace
 10
-251.056069753885
 20
77.29197952735596
 30
0.0
 11
-248.7364817108838
 21
78.31331317601187
 31
0.0
 12
-248.5306215028333
 22
77.50580712700288
 32
0.0
 13
-248.5306215028333
 23
77.50580712700288
 33
0.0
  0
ARC
  5
147
330
149
100
AcDbEntity
  8
0
  6
ByBlock
 62
     0
370
    -2
100
AcDbCircle
 10
0.0
 20
-902.439024390244
 30
0.0
 40
1011.386172635189
100
AcDbArc
 50
75.76884821248919
 51
104.2311517875108
  0
ENDBLK
  5
1E7
330
149
100
AcDbEntity
  8
0
100
AcDbBlockEnd
  0
BLOCK
  5
1E8
330
156
100
AcDbEntity
  8
0
100
AcDbBlockBegin
  2
*D17
 70
     1
 71
     0
 10
0.0
 20
0.0
 30
0.0
  3
*D17
  1

  0
LINE
  5
150
330
156
100
AcDbEntity
  8
0
  6
ByBlock
 62
     0
370
    -2
100
AcDbLine
 10
449.9634236720679
 20
-90.02282121274514
 30
0.0
 11
304.4192425595958
 21
-351.4503538767496
 31
0.0
  0
SOLID
  5
151
330
156
100
AcDbEntity
  8
0
  6
ByBlock
 62
     0
100
AcDbTrace
 10
451.1794884661524
 20
-87.83851665142858
 30
0.0
 11
450.3274744322874
 21
-90.22549867842592
 31
0.0
 12
449.5993729118484
 22
-89.82014374706436
 32
0.0
 13
449.5993729118484
 23
-89.82014374706436
 33
0.0
  0
MTEXT
  5
152
330
156
100
AcDbEntity
  8
0
  6
ByBlock
 62
     0
100
AcDbMText
 10
327.8845730786946
 20
-287.4587566656356
 30
0.0
 40
20.0
 41
0.0
 71
     5
 72
     1
  1
\A1;\U+22051855,08
 11
0.4864259176337782
 21
0.8737218245266263
 31
0.0
 73
     1
 44
1.0
  0
POINT
  5
153
330
156
100
AcDbEntity
  8
DEFPOINTS
  6
ByBlock
 62
     0
100
AcDbPoint
 10
-451.1794884661525
 20
-1708.662373115538
 30
0.0
  0
POINT
  5
154
330
156
100
AcDbEntity
  8
DEFPOINTS
  6
ByBlock
 62
     0
100
AcDbPoint
 10
451.1794884661524
 20
-87.83851665142858
 30
0.0
  0
ENDBLK
  5
1E9
330
156
100
AcDbEntity
  8
0
100
AcDbBlockEnd
  0
BLOCK
  5
1EA
330
16E
100
AcDbEntity
  8
0
100
AcDbBlockBegin
  2
*D18
 70
     1
 71
     0
 10
0.0
 20
0.0
 30
0.0
  3
*D18
  1

  0
POINT
  5
165
330
16E
100
AcDbEntity
  8
DEFPOINTS
  6
ByBlock
 62
     0
100
AcDbPoint
 10
-284.7009496127727
 20
1062.518408917975
 30
0.0
  0
POINT
  5
166
330
16E
100
AcDbEntity
  8
DEFPOINTS
  6
ByBlock
 62
     0
100
AcDbPoint
 10
284.7009496127728
 20
1062.518408917975
 30
0.0
  0
LINE
  5
167
330
16E
100
AcDbEntity
  8
0
  6
ByBlock
 62
     0
370
    -2
100
AcDbLine
 10
-284.7009496127727
 20
1063.143408917975
 30
0.0
 11
-284.7009496127727
 21
1088.591249384324
 31
0.0
  0
LINE
  5
168
330
16E
100
AcDbEntity
  8
0
  6
ByBlock
 62
     0
370
    -2
100
AcDbLine
 10
284.7009496127728
 20
1063.143408917975
 30
0.0
 11
284.7009496127728
 21
1088.591249384324
 31
0.0
  0
LINE
  5
169
330
16E
100
AcDbEntity
  8
0
  6
ByBlock
 62
     0
370
    -2
100
AcDbLine
 10
-282.2009496127727
 20
1087.341249384324
 30
0.0
 11
282.2009496127728
 21
1087.341249384324
 31
0.0
  0
SOLID
  5
16A
330
16E
100
AcDbEntity
  8
0
  6
ByBlock
 62
     0
100
AcDbTrace
 10
-284.7009496127727
 20
1087.341249384324
 30
0.0
 11
-282.2009496127727
 21
1086.924582717657
 31
0.0
 12
-282.2009496127727
 22
1087.757916050991
 32
0.0
 13
-282.2009496127727
 23
1087.757916050991
 33
0.0
  0
SOLID
  5
16B
330
16E
100
AcDbEntity
  8
0
  6
ByBlock
 62
     0
100
AcDbTrace
 10
284.7009496127728
 20
1087.341249384324
 30
0.0
 11
282.2009496127728
 21
1086.924582717657
 31
0.0
 12
282.2009496127728
 22
1087.757916050991
 32
0.0
 13
282.2009496127728
 23
1087.757916050991
 33
0.0
  0
MTEXT
  5
16C
330
16E
100
AcDbEntity
  8
0
  6
ByBlock
 62
     0
100
AcDbMText
 10
0.0000000000000568
 20
1099.666249384324
 30
0.0
 40
20.0
 41
0.0
 71
     5
 72
     1
  1
\A1;569,4
 73
     1
 44
1.0
  0
ENDBLK
  5
1EB
330
16E
100
AcDbEntity
  8
Info
100
AcDbBlockEnd
  0
BLOCK
  5
1EC
330
17A
100
AcDbEntity
  8
0
100
AcDbBlockBegin
  2
*D19
 70
     1
 71
     0
 10
0.0
 20
0.0
 30
0.0
  3
*D19
  1

  0
POINT
  5
171
330
17A
100
AcDbEntity
  8
DEFPOINTS
  6
ByBlock
 62
     0
100
AcDbPoint
 10
-181.1733315717638
 20
676.1480784023454
 30
0.0
  0
POINT
  5
172
330
17A
100
AcDbEntity
  8
DEFPOINTS
  6
ByBlock
 62
     0
100
AcDbPoint
 10
181.1733315717645
 20
676.1480784023478
 30
0.0
  0
LINE
  5
173
330
17A
100
AcDbEntity
  8
0
  6
ByBlock
 62
     0
370
    -2
100
AcDbLine
 10
-181.1733315717638
 20
675.5230784023454
 30
0.0
 11
-181.1733315717638
 21
614.2661556805847
 31
0.0
  0
LINE
  5
174
330
17A
100
AcDbEntity
  8
0
  6
ByBlock
 62
     0
370
    -2
100
AcDbLine
 10
181.1733315717645
 20
675.5230784023478
 30
0.0
 11
181.1733315717645
 21
614.2661556805847
 31
0.0
  0
LINE
  5
175
330
17A
100
AcDbEntity
  8
0
  6
ByBlock
 62
     0
370
    -2
100
AcDbLine
 10
-178.6733315717638
 20
615.5161556805847
 30
0.0
 11
178.6733315717645
 21
615.5161556805847
 31
0.0
  0
SOLID
  5
176
330
17A
100
AcDbEntity
  8
0
  6
ByBlock
 62
     0
100
AcDbTrace
 10
-181.1733315717638
 20
615.5161556805847
 30
0.0
 11
-178.6733315717638
 21
615.099489013918
 31
0.0
 12
-178.6733315717638
 22
615.9328223472514
 32
0.0
 13
-178.6733315717638
 23
615.9328223472514
 33
0.0
  0
SOLID
  5
177
330
17A
100
AcDbEntity
  8
0
  6
ByBlock
 62
     0
100
AcDbTrace
 10
181.1733315717645
 20
615.5161556805847
 30
0.0
 11
178.6733315717645
 21
615.099489013918
 31
0.0
 12
178.6733315717645
 22
615.9328223472514
 32
0.0
 13
178.6733315717645
 23
615.9328223472514
 33
0.0
  0
MTEXT
  5
178
330
17A
100
AcDbEntity
  8
0
  6
ByBlock
 62
     0
100
AcDbMText
 10
0.0000000000003695
 20
627.8411556805847
 30
0.0
 40
20.0
 41
0.0
 71
     5
 72
     1
  1
\A1;362,35
 73
     1
 44
1.0
  0
ENDBLK
  5
1ED
330
17A
100
AcDbEntity
  8
Info
100
AcDbBlockEnd
  0
BLOCK
  5
1EE
330
186
100
AcDbEntity
  8
0
100
AcDbBlockBegin
  2
*D20
 70
     1
 71
     0
 10
0.0
 20
0.0
 30
0.0
  3
*D20
  1

  0
POINT
  5
17D
330
186
100
AcDbEntity
  8
DEFPOINTS
  6
ByBlock
 62
     0
100
AcDbPoint
 10
284.7009496127728
 20
1062.518408917975
 30
0.0
  0
POINT
  5
17E
330
186
100
AcDbEntity
  8
DEFPOINTS
  6
ByBlock
 62
     0
100
AcDbPoint
 10
181.1733315717645
 20
676.1480784023478
 30
0.0
  0
LINE
  5
17F
330
186
100
AcDbEntity
  8
0
  6
ByBlock
 62
     0
370
    -2
100
AcDbLine
 10
285.3046532542035
 20
1062.356647014786
 30
0.0
 11
335.4794381659111
 21
1048.912353917289
 31
0.0
  0
LINE
  5
180
330
186
100
AcDbEntity
  8
0
  6
ByBlock
 62
     0
370
    -2
100
AcDbLine
 10
181.7770352131952
 20
675.9863164991587
 30
0.0
 11
231.9518201249028
 21
662.5420234016614
 31
0.0
  0
LINE
  5
181
330
186
100
AcDbEntity
  8
0
  6
ByBlock
 62
     0
370
    -2
100
AcDbLine
 10
333.6249832702935
 20
1046.821063157944
 30
0.0
 11
231.3914604547978
 21
665.2803617737621
 31
0.0
  0
SOLID
  5
182
330
186
100
AcDbEntity
  8
0
  6
ByBlock
 62
     0
100
AcDbTrace
 10
334.2720308830498
 20
1049.235877723667
 30
0.0
 11
333.2225141760063
 21
1046.928904426737
 31
0.0
 12
334.0274523645807
 22
1046.713221889152
 32
0.0
 13
334.0274523645807
 23
1046.713221889152
 33
0.0
  0
SOLID
  5
183
330
186
100
AcDbEntity
  8
0
  6
ByBlock
 62
     0
100
AcDbTrace
 10
230.7444128420415
 20
662.8655472080395
 30
0.0
 11
230.9889913605106
 21
665.3882030425549
 31
0.0
 12
231.793929549085
 22
665.1725205049695
 32
0.0
 13
231.793929549085
 23
665.1725205049695
 33
0.0
  0
MTEXT
  5
184
330
186
100
AcDbEntity
  8
0
  6
ByBlock
 62
     0
100
AcDbMText
 10
272.2452599582243
 20
858.8006648200675
 30
0.0
 40
20.0
 41
0.0
 71
     5
 72
     1
  1
\A1;400
 11
0.2588190451025205
 21
0.9659258262890683
 31
0.0
 73
     1
 44
1.0
  0
ENDBLK
  5
1EF
330
186
100
AcDbEntity
  8
Info
100
AcDbBlockEnd
  0
BLOCK
  5
1F0
330
192
100
AcDbEntity
  8
0
100
AcDbBlockBegin
  2
*D21
 70
     1
 71
     0
 10
0.0
 20
0.0
 30
0.0
  3
*D21
  1

  0
POINT
  5
189
330
192
100
AcDbEntity
  8
DEFPOINTS
  6
ByBlock
 62
     0
100
AcDbPoint
 10
-284.7009496127727
 20
1062.518408917975
 30
0.0
  0
POINT
  5
18A
330
192
100
AcDbEntity
  8
DEFPOINTS
  6
ByBlock
 62
     0
100
AcDbPoint
 10
-181.1733315717638
 20
676.1480784023454
 30
0.0
  0
LINE
  5
18B
330
192
100
AcDbEntity
  8
0
  6
ByBlock
 62
     0
370
    -2
100
AcDbLine
 10
-285.3046532542034
 20
1062.356647014786
 30
0.0
 11
-354.1771640342157
 21
1043.902313370578
 31
0.0
  0
LINE
  5
18C
330
192
100
AcDbEntity
  8
0
  6
ByBlock
 62
     0
370
    -2
100
AcDbLine
 10
-181.7770352131944
 20
675.9863164991564
 30
0.0
 11
-250.6495459932069
 21
657.5319828549482
 31
0.0
  0
LINE
  5
18D
330
192
100
AcDbEntity
  8
0
  6
ByBlock
 62
     0
370
    -2
100
AcDbLine
 10
-352.3227091385981
 20
1041.811022611234
 30
0.0
 11
-250.0891863231019
 21
660.2703212270491
 31
0.0
  0
SOLID
  5
18E
330
192
100
AcDbEntity
  8
0
  6
ByBlock
 62
     0
100
AcDbTrace
 10
-352.9697567513544
 20
1044.225837176956
 30
0.0
 11
-352.7251782328853
 21
1041.703181342441
 31
0.0
 12
-351.9202400443109
 22
1041.918863880026
 32
0.0
 13
-351.9202400443109
 23
1041.918863880026
 33
0.0
  0
SOLID
  5
18F
330
192
100
AcDbEntity
  8
0
  6
ByBlock
 62
     0
100
AcDbTrace
 10
-249.4421387103456
 20
657.8555066613263
 30
0.0
 11
-250.4916554173891
 21
660.1624799582563
 31
0.0
 12
-249.6867172288147
 22
660.3781624958418
 32
0.0
 13
-249.6867172288147
 23
660.3781624958418
 33
0.0
  0
MTEXT
  5
190
330
192
100
AcDbEntity
  8
0
  6
ByBlock
 62
     0
100
AcDbMText
 10
-290.9429858265286
 20
853.7906242733556
 30
0.0
 40
20.0
 41
0.0
 71
     5
 72
     1
  1
\A1;400
 11
0.2588190451025203
 21
-0.9659258262890684
 31
0.0
 73
     1
 44
1.0
  0
ENDBLK
  5
1F1
330
192
100
AcDbEntity
  8
Info
100
AcDbBlockEnd
  0
BLOCK
  5
1F2
330
19B
100
AcDbEntity
  8
0
100
AcDbBlockBegin
  2
*D22
 70
     1
 71
     0
 10
0.0
 20
0.0
 30
0.0
  3
*D22
  1

  0
LINE
  5
195
330
19B
100
AcDbEntity
  8
0
  6
ByBlock
 62
     0
370
    -2
100
AcDbLine
 10
127.7104451491751
 20
888.3672057205801
 30
0.0
 11
114.1516373718959
 21
794.0507215525498
 31
0.0
  0
SOLID
  5
196
330
19B
100
AcDbEntity
  8
0
  6
ByBlock
 62
     0
100
AcDbTrace
 10
128.0661845507049
 20
890.8417661821973
 30
0.0
 11
128.1228718927781
 21
888.3079158203251
 31
0.0
 12
127.2980184055722
 22
888.426495620835
 32
0.0
 13
127.2980184055722
 23
888.426495620835
 33
0.0
  0
MTEXT
  5
197
330
19B
100
AcDbEntity
  8
0
  6
ByBlock
 62
     0
100
AcDbMText
 10
108.4621390887811
 20
829.1423994731969
 30
0.0
 40
20.0
 41
0.0
 71
     5
 72
     1
  1
\A1;R900
 11
0.1422957606118921
 21
0.9898241846468913
 31
0.0
 73
     1
 44
1.0
  0
POINT
  5
198
330
19B
100
AcDbEntity
  8
DEFPOINTS
  6
ByBlock
 62
     0
100
AcDbPoint
 10
0.0000000000025609
 20
-0.0000000000008226
 30
0.0
  0
POINT
  5
199
330
19B
100
AcDbEntity
  8
DEFPOINTS
  6
ByBlock
 62
     0
100
AcDbPoint
 10
128.0661845507049
 20
890.8417661821973
 30
0.0
  0
ENDBLK
  5
1F3
330
19B
100
AcDbEntity
  8
Info
100
AcDbBlockEnd
  0
BLOCK
  5
1F4
330
1A7
100
AcDbEntity
  8
0
100
AcDbBlockBegin
  2
*D23
 70
     1
 71
     0
 10
0.0
 20
0.0
 30
0.0
  3
*D23
  1

  0
MTEXT
  5
19E
330
1A7
100
AcDbEntity
  8
0
  6
ByBlock
 62
     0
100
AcDbMText
 10
129.2139451210354
 20
743.8628691821991
 30
0.0
 40
20.0
 41
0.0
 71
     5
 72
     1
  1
\A1;105,00%%d
 11
0.7933533402912332
 21
0.6087614290087232
 31
0.0
 73
     1
 44
1.0
  0
POINT
  5
19F
330
1A7
100
AcDbEntity
  8
DEFPOINTS
  6
ByBlock
 62
     0
100
AcDbPoint
 10
284.7009496127728
 20
1062.518408917975
 30
0.0
  0
POINT
  5
1A0
330
1A7
100
AcDbEntity
  8
DEFPOINTS
  6
ByBlock
 62
     0
100
AcDbPoint
 10
-181.1733315717739
 20
676.1480784023453
 30
0.0
  0
POINT
  5
1A1
330
1A7
100
AcDbEntity
  8
DEFPOINTS
  6
ByBlock
 62
     0
100
AcDbPoint
 10
181.1733315717645
 20
676.1480784023478
 30
0.0
  0
POINT
  5
1A2
330
1A7
100
AcDbEntity
  8
DEFPOINTS
  6
ByBlock
 62
     0
100
AcDbPoint
 10
181.1733315717645
 20
676.1480784023478
 30
0.0
  0
SOLID
  5
1A3
330
1A7
100
AcDbEntity
  8
0
  6
ByBlock
 62
     0
100
AcDbTrace
 10
200.5142643237055
 20
748.3294220983643
 30
0.0
 11
197.987870275166
 21
748.5317688863685
 31
0.0
 12
198.1900581009263
 22
749.3402022649217
 32
0.0
 13
198.1900581009263
 23
749.3402022649217
 33
0.0
  0
SOLID
  5
1A4
330
1A7
100
AcDbEntity
  8
0
  6
ByBlock
 62
     0
100
AcDbTrace
 10
106.4457057732852
 20
676.1480784023473
 30
0.0
 11
106.0709159409076
 21
678.6546983760684
 31
0.0
 12
106.9041326800809
 22
678.6407588636654
 32
0.0
 13
106.9041326800809
 23
678.6407588636654
 33
0.0
  0
ARC
  5
1A5
330
1A7
100
AcDbEntity
  8
0
  6
ByBlock
 62
     0
370
    -2
100
AcDbCircle
 10
181.1733315717646
 20
676.1480784023478
 30
0.0
 40
74.72762579847938
100
AcDbArc
 50
76.91690995102916
 51
178.0830900489712
  0
ENDBLK
  5
1F5
330
1A7
100
AcDbEntity
  8
Info
100
AcDbBlockEnd
  0
BLOCK
  5
1F6
330
1B3
100
AcDbEntity
  8
0
100
AcDbBlockBegin
  2
*D24
 70
     1
 71
     0
 10
0.0
 20
0.0
 30
0.0
  3
*D24
  1

  0
MTEXT
  5
1AA
330
1B3
100
AcDbEntity
  8
0
  6
ByBlock
 62
     0
100
AcDbMText
 10
-131.9980996493642
 20
740.2344883589677
 30
0.0
 40
20.0
 41
0.0
 71
     5
 72
     1
  1
\A1;105,00%%d
 11
0.7933533402912378
 21
-0.6087614290087172
 31
0.0
 73
     1
 44
1.0
  0
POINT
  5
1AB
330
1B3
100
AcDbEntity
  8
DEFPOINTS
  6
ByBlock
 62
     0
100
AcDbPoint
 10
181.1733315717645
 20
676.1480784023478
 30
0.0
  0
POINT
  5
1AC
330
1B3
100
AcDbEntity
  8
DEFPOINTS
  6
ByBlock
 62
     0
100
AcDbPoint
 10
-181.1733315717638
 20
676.1480784023454
 30
0.0
  0
POINT
  5
1AD
330
1B3
100
AcDbEntity
  8
DEFPOINTS
  6
ByBlock
 62
     0
100
AcDbPoint
 10
-284.7009496127727
 20
1062.518408917975
 30
0.0
  0
POINT
  5
1AE
330
1B3
100
AcDbEntity
  8
DEFPOINTS
  6
ByBlock
 62
     0
100
AcDbPoint
 10
-181.1733315717739
 20
676.1480784023453
 30
0.0
  0
SOLID
  5
1AF
330
1B3
100
AcDbEntity
  8
0
  6
ByBlock
 62
     0
100
AcDbTrace
 10
-199.3305621669938
 20
743.911785508488
 30
0.0
 11
-197.0052549166753
 21
744.9200301726083
 31
0.0
 12
-196.8039489310318
 22
744.1113767582282
 32
0.0
 13
-196.8039489310318
 23
744.1113767582282
 33
0.0
  0
SOLID
  5
1B0
330
1B3
100
AcDbEntity
  8
0
  6
ByBlock
 62
     0
100
AcDbTrace
 10
-111.0191797084886
 20
676.1480784023457
 30
0.0
 11
-111.4803249907385
 21
678.6402573966738
 31
0.0
 12
-110.6471239502941
 22
678.655105650683
 32
0.0
 13
-110.6471239502941
 23
678.655105650683
 33
0.0
  0
ARC
  5
1B1
330
1B3
100
AcDbEntity
  8
0
  6
ByBlock
 62
     0
370
    -2
100
AcDbCircle
 10
-181.1733315717638
 20
676.1480784023453
 30
0.0
 40
70.15415186327512
100
AcDbArc
 50
2.041889543009064
 51
102.9581104569913
  0
ENDBLK
  5
1F7
330
1B3
100
AcDbEntity
  8
Info
100
AcDbBlockEnd
  0
BLOCK
  5
1F8
330
1C4
100
AcDbEntity
  8
0
100
AcDbBlockBegin
  2
*D25
 70
     1
 71
     0
 10
0.0
 20
0.0
 30
0.0
  3
*D25
  1

  0
MTEXT
  5
1BB
330
1C4
100
AcDbEntity
  8
0
  6
ByBlock
 62
     0
100
AcDbMText
 10
0.0000000000000881
 20
948.39077829425
 30
0.0
 40
20.0
 41
0.0
 71
     5
 72
     1
  1
\A1;30,00%%d
 73
     1
 44
1.0
  0
POINT
  5
1BC
330
1C4
100
AcDbEntity
  8
DEFPOINTS
  6
ByBlock
 62
     0
100
AcDbPoint
 10
-284.7009496127727
 20
1062.518408917975
 30
0.0
  0
POINT
  5
1BD
330
1C4
100
AcDbEntity
  8
DEFPOINTS
  6
ByBlock
 62
     0
100
AcDbPoint
 10
181.1733315717645
 20
676.1480784023478
 30
0.0
  0
POINT
  5
1BE
330
1C4
100
AcDbEntity
  8
DEFPOINTS
  6
ByBlock
 62
     0
100
AcDbPoint
 10
284.7009496127728
 20
1062.518408917975
 30
0.0
  0
POINT
  5
1BF
330
1C4
100
AcDbEntity
  8
DEFPOINTS
  6
ByBlock
 62
     0
100
AcDbPoint
 10
-181.1733315717638
 20
676.1480784023454
 30
0.0
  0
SOLID
  5
1C0
330
1C4
100
AcDbEntity
  8
0
  6
ByBlock
 62
     0
100
AcDbTrace
 10
242.71164326794
 20
905.8121842644847
 30
0.0
 11
240.1886636622476
 21
906.0533999778442
 31
0.0
 12
240.4032730614828
 22
906.858624946536
 32
0.0
 13
240.4032730614828
 23
906.858624946536
 33
0.0
  0
SOLID
  5
1C1
330
1C4
100
AcDbEntity
  8
0
  6
ByBlock
 62
     0
100
AcDbTrace
 10
-242.7116432679398
 20
905.8121842644847
 30
0.0
 11
-240.4032730614826
 21
906.858624946536
 31
0.0
 12
-240.1886636622475
 22
906.0533999778442
 32
0.0
 13
-240.1886636622475
 23
906.0533999778442
 33
0.0
  0
ARC
  5
1C2
330
1C4
100
AcDbEntity
  8
0
  6
ByBlock
 62
     0
370
    -2
100
AcDbCircle
 10
0.0000000000000301
 20
0.0000000000000445
 30
0.0
 40
937.76577829425
100
AcDbArc
 50
75.15274548774914
 51
104.8472545122509
  0
ENDBLK
  5
1F9
330
1C4
100
AcDbEntity
  8
Info
100
AcDbBlockEnd
  0
ENDSEC
  0
SECTION
  2
ENTITIES
  0
LINE
  5
157
330
1F
100
AcDbEntity
  8
0
100
AcDbLine
 10
-181.1733315717638
 20
676.1480784023454
 30
0.0
 11
-284.7009496127727
 21
1062.518408917975
 31
0.0
  0
LINE
  5
159
330
1F
100
AcDbEntity
  8
0
100
AcDbLine
 10
181.1733315717645
 20
676.1480784023478
 30
0.0
 11
284.7009496127728
 21
1062.518408917975
 31
0.0
  0
LINE
  5
15A
330
1F
100
AcDbEntity
  8
0
100
AcDbLine
 10
284.7009496127728
 20
1062.518408917975
 30
0.0
 11
-284.7009496127727
 21
1062.518408917975
 31
0.0
  0
LINE
  5
15D
330
1F
100
AcDbEntity
  8
0
100
AcDbLine
 10
-181.1733315717739
 20
676.1480784023453
 30
0.0
 11
181.1733315717645
 21
676.1480784023478
 31
0.0
  0
LWPOLYLINE
  5
162
330
1F
100
AcDbEntity
  8
0
100
AcDbPolyline
 90
        2
 70
     0
 43
9.0
 10
232.9371405922687
 20
869.3332436601615
 42
0.1316524975873957
 10
-232.9371405922682
 20
869.3332436601603
 42
7.595754112725182
  0
DIMENSION
  5
163
330
1F
100
AcDbEntity
  8
Info
100
AcDbDimension
  2
*D18
 10
284.7009496127728
 20
1087.341249384324
 30
0.0
 11
0.0000000000000568
 21
1099.666249384324
 31
0.0
 70
    32
 71
   222
 72
   248
 41
0.0
 42
569.4018992255456
  3
ISO-25
100
AcDbAlignedDimension
 13
-284.7009496127727
 23
1062.518408917975
 33
0.0
 14
284.7009496127728
 24
1062.518408917975
 34
0.0
100
AcDbRotatedDimension
1001
ACAD
1000
DSTYLE
1002
{
1070
   140
1040
20.0
1070
   179
1070
     2
1002
}
  0
DIMENSION
  5
16F
330
1F
100
AcDbEntity
  8
Info
100
AcDbDimension
  2
*D19
 10
181.1733315717649
 20
615.5161556805847
 30
0.0
 11
0.0000000000003695
 21
627.8411556805847
 31
0.0
 70
    33
 71
     0
 72
     0
 41
1089.666249384324
 42
362.3466631435283
 53
0.0000000000003775
  3
ISO-25
100
AcDbAlignedDimension
 13
-181.1733315717638
 23
676.1480784023454
 33
0.0
 14
181.1733315717645
 24
676.1480784023478
 34
0.0
1001
ACAD
1000
DSTYLE
1002
{
1070
   140
1040
20.0
1070
   179
1070
     2
1002
}
  0
DIMENSION
  5
17B
330
1F
100
AcDbEntity
  8
Info
100
AcDbDimension
  2
*D20
 10
230.7444128420415
 20
662.8655472080395
 30
0.0
 11
272.2452599582243
 21
858.8006648200675
 31
0.0
 70
    33
 71
     0
 72
     0
 41
1089.666249384324
 42
400.0000000000001
 53
255.0
  3
ISO-25
100
AcDbAlignedDimension
 13
284.7009496127728
 23
1062.518408917975
 33
0.0
 14
181.1733315717645
 24
676.1480784023478
 34
0.0
1001
ACAD
1000
DSTYLE
1002
{
1070
   140
1040
20.0
1070
   179
1070
     2
1002
}
  0
DIMENSION
  5
187
330
1F
100
AcDbEntity
  8
Info
100
AcDbDimension
  2
*D21
 10
-249.4421387103456
 20
657.8555066613263
 30
0.0
 11
-290.9429858265286
 21
853.7906242733556
 31
0.0
 70
    33
 71
   181
 72
   217
 41
1089.666249384324
 42
400.0000000000026
 53
285.0
  3
ISO-25
100
AcDbAlignedDimension
 13
-284.7009496127727
 23
1062.518408917975
 33
0.0
 14
-181.1733315717638
 24
676.1480784023454
 34
0.0
1001
ACAD
1000
DSTYLE
1002
{
1070
   140
1040
20.0
1070
   179
1070
     2
1002
}
  0
DIMENSION
  5
193
330
1F
100
AcDbEntity
  8
Info
100
AcDbDimension
  2
*D22
 10
0.0000000000025609
 20
-0.0000000000008226
 30
0.0
 11
108.4621390887811
 21
829.1423994731969
 31
0.0
 70
    36
 71
   130
 72
   199
 41
0.0
 42
899.9999999999959
  3
ISO-25
100
AcDbRadialDimension
 15
128.0661845507049
 25
890.8417661821973
 35
0.0
 40
5.0
1001
ACAD
1000
DSTYLE
1002
{
1070
   140
1040
20.0
1070
   179
1070
     2
1002
}
  0
DIMENSION
  5
19C
330
1F
100
AcDbEntity
  8
Info
100
AcDbDimension
  2
*D23
 10
284.7009496127728
 20
1062.518408917975
 30
0.0
 11
129.2139451210354
 21
743.8628691821991
 31
0.0
 70
    34
 71
   122
 72
   245
 41
0.0
 42
1.832595714594053
  3
ISO-25
100
AcDb2LineAngularDimension
 13
-181.1733315717739
 23
676.1480784023453
 33
0.0
 14
181.1733315717645
 24
676.1480784023478
 34
0.0
 15
181.1733315717645
 25
676.1480784023478
 35
0.0
 16
134.4995833435406
 26
734.5071332593785
 36
0.0
1001
ACAD
1000
DSTYLE
1002
{
1070
   140
1040
20.0
1070
   179
1070
     2
1002
}
  0
DIMENSION
  5
1A8
330
1F
100
AcDbEntity
  8
Info
100
AcDbDimension
  2
*D24
 10
181.1733315717645
 20
676.1480784023478
 30
0.0
 11
-131.9980996493642
 21
740.2344883589677
 31
0.0
 70
    34
 71
    22
 72
   172
 41
0.0
 42
1.832595714594039
  3
ISO-25
100
AcDb2LineAngularDimension
 13
-181.1733315717638
 23
676.1480784023454
 33
0.0
 14
-284.7009496127727
 24
1062.518408917975
 34
0.0
 15
-181.1733315717739
 25
676.1480784023453
 35
0.0
 16
-140.7317213169741
 26
733.4724291065195
 36
0.0
1001
ACAD
1000
DSTYLE
1002
{
1070
   140
1040
20.0
1070
   179
1070
     2
1002
}
  0
MTEXT
  5
1B5
330
1F
100
AcDbEntity
  8
Info
100
AcDbMText
 10
-235.2672550788307
 20
1014.603131169177
 30
0.0
 40
20.0
 41
179.4894999999999
 71
     1
 72
     1
  1
fN1G
 11
0.2649101894769435
 21
-0.9642730896956991
 31
0.0
 73
     1
 44
1.0
  0
MTEXT
  5
1B6
330
1F
100
AcDbEntity
  8
Info
100
AcDbMText
 10
222.6949146177254
 20
949.9341216154849
 30
0.0
 40
19.99999999999998
 41
179.4895
 71
     1
 72
     1
  1
fN1G
 11
0.2653557490782851
 21
0.9641505724891223
 31
0.0
 73
     1
 44
1.0
  0
MTEXT
  5
1B8
330
1F
100
AcDbEntity
  8
0
100
AcDbMText
 10
-104.6094602662688
 20
1050.237075208967
 30
0.0
 40
20.0
 41
413.0898
 71
     1
 72
     1
  1
\C2;\c65535;Am Schafstall\PKE
 73
     1
 44
1.0
  0
DIMENSION
  5
1B9
330
1F
100
AcDbEntity
  8
Info
100
AcDbDimension
  2
*D25
 10
-284.7009496127727
 20
1062.518408917975
 30
0.0
 11
0.0000000000000881
 21
948.39077829425
 31
0.0
 70
    34
 71
    54
 72
    32
 41
2.259762881387173E+137
 42
0.5235987755982987
  3
ISO-25
100
AcDb2LineAngularDimension
 13
181.1733315717645
 23
676.1480784023478
 33
0.0
 14
284.7009496127728
 24
1062.518408917975
 34
0.0
 15
-181.1733315717638
 25
676.1480784023454
 35
0.0
 16
-66.33596481612429
 26
935.4165888585334
 36
0.0
1001
ACAD
1000
DSTYLE
1002
{
1070
   140
1040
20.0
1070
   179
1070
     2
1002
}
  0
ENDSEC
  0
SECTION
  2
OBJECTS
  0
DICTIONARY
  5
C
330
0
100
AcDbDictionary
281
     1
  3
ACAD_COLOR
350
6C
  3
ACAD_GROUP
350
D
  3
ACAD_LAYOUT
350
1A
  3
ACAD_MATERIAL
350
6B
  3
ACAD_MLINESTYLE
350
17
  3
ACAD_PLOTSETTINGS
350
19
  3
ACAD_PLOTSTYLENAME
350
E
  3
ACAD_TABLESTYLE
350
92
  3
AcDbVariableDictionary
350
59
  0
DICTIONARY
  5
6C
102
{ACAD_REACTORS
330
C
102
}
330
C
100
AcDbDictionary
281
     1
  0
DICTIONARY
  5
D
102
{ACAD_REACTORS
330
C
102
}
330
C
100
AcDbDictionary
281
     1
  0
DICTIONARY
  5
1A
102
{ACAD_REACTORS
330
C
102
}
330
C
100
AcDbDictionary
281
     1
  3
Layout1
350
74
  3
Layout2
350
28
  3
Model
350
22
  0
DICTIONARY
  5
6B
102
{ACAD_REACTORS
330
C
102
}
330
C
100
AcDbDictionary
281
     1
  0
DICTIONARY
  5
17
102
{ACAD_REACTORS
330
C
102
}
330
C
100
AcDbDictionary
281
     1
  3
Standard
350
18
  0
DICTIONARY
  5
19
102
{ACAD_REACTORS
330
C
102
}
330
C
100
AcDbDictionary
281
     1
  0
ACDBDICTIONARYWDFLT
  5
E
102
{ACAD_REACTORS
330
C
102
}
330
C
100
AcDbDictionary
281
     1
  3
Normal
350
F
100
AcDbDictionaryWithDefault
340
F
  0
DICTIONARY
  5
92
102
{ACAD_REACTORS
330
C
102
}
330
C
100
AcDbDictionary
281
     1
  3
Standard
350
93
  0
DICTIONARY
  5
59
102
{ACAD_REACTORS
330
C
102
}
330
C
100
AcDbDictionary
281
     1
  3
CTABLESTYLE
350
98
  3
HIDETEXT
350
30
  0
LAYOUT
  5
74
102
{ACAD_REACTORS
330
1A
102
}
330
1A
100
AcDbPlotSettings
  1

  2
HP C LaserJet 4500-PS
  4
HP C LaserJet 4500-PS
  6

 40
0.0
 41
0.0
 42
0.0
 43
0.0
 44
0.0
 45
0.0
 46
0.0
 47
0.0
 48
0.0
 49
0.0
140
0.0
141
0.0
142
1.0
143
1.0
 70
   688
 72
     0
 73
     0
 74
     5
  7

 75
    16
 76
     0
 77
     2
 78
   300
147
1.0
148
0.0
149
0.0
100
AcDbLayout
  1
Layout1
 70
     1
 71
     1
 10
0.0
 20
0.0
 11
420.0
 21
297.0
 12
0.0
 22
0.0
 32
0.0
 14
1.000000000000000E+20
 24
1.000000000000000E+20
 34
1.000000000000000E+20
 15
-1.000000000000000E+20
 25
-1.000000000000000E+20
 35
-1.000000000000000E+20
146
0.0
 13
0.0
 23
0.0
 33
0.0
 16
1.0
 26
0.0
 36
0.0
 17
0.0
 27
1.0
 37
0.0
 76
     0
330
73
  0
LAYOUT
  5
28
102
{ACAD_REACTORS
330
1A
102
}
330
1A
100
AcDbPlotSettings
  1

  2
HP C LaserJet 4500-PS
  4
HP C LaserJet 4500-PS
  6

 40
0.0
 41
0.0
 42
0.0
 43
0.0
 44
0.0
 45
0.0
 46
0.0
 47
0.0
 48
0.0
 49
0.0
140
0.0
141
0.0
142
1.0
143
1.0
 70
   688
 72
     0
 73
     0
 74
     5
  7

 75
    16
 76
     0
 77
     2
 78
   300
147
1.0
148
0.0
149
0.0
100
AcDbLayout
  1
Layout2
 70
     1
 71
     2
 10
0.0
 20
0.0
 11
12.0
 21
9.0
 12
0.0
 22
0.0
 32
0.0
 14
0.0
 24
0.0
 34
0.0
 15
0.0
 25
0.0
 35
0.0
146
0.0
 13
0.0
 23
0.0
 33
0.0
 16
1.0
 26
0.0
 36
0.0
 17
0.0
 27
1.0
 37
0.0
 76
     0
330
25
  0
LAYOUT
  5
22
102
{ACAD_REACTORS
330
1A
102
}
330
1A
100
AcDbPlotSettings
  1

  2
HP C LaserJet 4500-PS
  4
HP C LaserJet 4500-PS
  6

 40
0.0
 41
0.0
 42
0.0
 43
0.0
 44
0.0
 45
0.0
 46
0.0
 47
0.0
 48
0.0
 49
0.0
140
0.0
141
0.0
142
1.0
143
1.0
 70
 11952
 72
     0
 73
     0
 74
     0
  7

 75
     0
 76
     0
 77
     2
 78
   300
147
1.0
148
0.0
149
0.0
100
AcDbLayout
  1
Model
 70
     1
 71
     0
 10
0.0
 20
0.0
 11
420.0
 21
297.0
 12
0.0
 22
0.0
 32
0.0
 14
-900.0000000000047
 24
-900.000000000006
 34
0.0
 15
900.0000000000081
 25
1109.666249384324
 35
0.0
146
0.0
 13
0.0
 23
0.0
 33
0.0
 16
1.0
 26
0.0
 36
0.0
 17
0.0
 27
1.0
 37
0.0
 76
     0
330
1F
  0
MLINESTYLE
  5
18
102
{ACAD_REACTORS
330
17
102
}
330
17
100
AcDbMlineStyle
  2
Standard
 70
     0
  3

 62
   256
 51
90.0
 52
90.0
 71
     2
 49
0.5
 62
   256
  6
BYLAYER
 49
-0.5
 62
   256
  6
BYLAYER
  0
ACDBPLACEHOLDER
  5
F
102
{ACAD_REACTORS
330
E
102
}
330
E
  0
TABLESTYLE
  5
93
102
{ACAD_REACTORS
330
92
102
}
330
92
100
AcDbTableStyle
  3
Standard
 70
     0
 71
     0
 40
0.06
 41
0.06
280
     0
281
     0
  7
Standard
140
0.18
170
     2
 62
     0
 63
     7
283
     0
274
    -2
284
     1
 64
     0
275
    -2
285
     1
 65
     0
276
    -2
286
     1
 66
     0
277
    -2
287
     1
 67
     0
278
    -2
288
     1
 68
     0
279
    -2
289
     1
 69
     0
  7
Standard
140
0.25
170
     5
 62
     0
 63
     7
283
     0
274
    -2
284
     1
 64
     0
275
    -2
285
     1
 65
     0
276
    -2
286
     1
 66
     0
277
    -2
287
     1
 67
     0
278
    -2
288
     1
 68
     0
279
    -2
289
     1
 69
     0
  7
Standard
140
0.18
170
     5
 62
     0
 63
     7
283
     0
274
    -2
284
     1
 64
     0
275
    -2
285
     1
 65
     0
276
    -2
286
     1
 66
     0
277
    -2
287
     1
 67
     0
278
    -2
288
     1
 68
     0
279
    -2
289
     1
 69
     0
  0
DICTIONARYVAR
  5
98
102
{ACAD_REACTORS
330
59
102
}
330
59
100
DictionaryVariables
280
     0
  1
STANDARD
  0
DICTIONARYVAR
  5
30
102
{ACAD_REACTORS
330
59
102
}
330
59
100
DictionaryVariables
280
     0
  1
2
  0
ENDSEC
  0
SECTION
  2
THUMBNAILIMAGE
 90
    16364
310
28000000B40000005500000001000800000000000000000000000000000000000000000000000000FFFFFF000000FF0000FFFF0000FF0000FFFF0000FF000000FF00FF000000000080808000C0C0C0000000FF007F7FFF000000A5005252A50000007F003F3F7F0000004C0026264C000000260013132600003FFF007F9FFF
310
000029A5005267A500001F7F003F4F7F0000134C00262F4C000009260013172600007FFF007FBFFF000052A500527CA500003F7F003F5F7F0000264C0026394C0000132600131C260000BFFF007FDFFF00007CA5005291A500005F7F003F6F7F0000394C0026424C00001C26001321260000FFFF007FFFFF0000A5A50052A5
310
A500007F7F003F7F7F00004C4C00264C4C00002626001326260000FFBF007FFFDF0000A57C0052A59100007F5F003F7F6F00004C3900264C420000261C001326210000FF7F007FFFBF0000A5520052A57C00007F3F003F7F5F00004C2600264C39000026130013261C0000FF3F007FFF9F0000A5290052A56700007F1F003F
310
7F4F00004C1300264C2F00002609001326170000FF00007FFF7F0000A5000052A55200007F00003F7F3F00004C0000264C260000260000132613003FFF00009FFF7F0029A5000067A552001F7F00004F7F3F00134C00002F4C260009260000172613007FFF0000BFFF7F0052A500007CA552003F7F00005F7F3F00264C0000
310
394C2600132600001C261300BFFF0000DFFF7F007CA5000091A552005F7F00006F7F3F00394C0000424C26001C26000021261300FFFF0000FFFF7F00A5A50000A5A552007F7F00007F7F3F004C4C00004C4C26002626000026261300FFBF0000FFDF7F00A57C0000A59152007F5F00007F6F3F004C3900004C422600261C00
310
0026211300FF7F0000FFBF7F00A5520000A57C52007F3F00007F5F3F004C2600004C39260026130000261C1300FF3F0000FF9F7F00A5290000A56752007F1F00007F4F3F004C1300004C2F26002609000026171300FF000000FF7F7F00A5000000A55252007F0000007F3F3F004C0000004C2626002600000026131300FF00
310
3F00FF7F9F00A5002900A55267007F001F007F3F4F004C0013004C262F002600090026131700FF007F00FF7FBF00A5005200A5527C007F003F007F3F5F004C0026004C2639002600130026131C00FF00BF00FF7FDF00A5007C00A55291007F005F007F3F6F004C0039004C26420026001C0026132100FF00FF00FF7FFF00A5
310
00A500A552A5007F007F007F3F7F004C004C004C264C002600260026132600BF00FF00DF7FFF007C00A5009152A5005F007F006F3F7F0039004C0042264C001C002600211326007F00FF00BF7FFF005200A5007C52A5003F007F005F3F7F0026004C0039264C00130026001C1326003F00FF009F7FFF002900A5006752A500
310
1F007F004F3F7F0013004C002F264C000900260017132600000000002D2D2D005B5B5B0089898900B7B7B700B3B3B30000000000000000000000000000000000000000000000000000000000000000000000000000000000000000000000000000000000000000000000000000000000000000000000000000000000000000
310
00000000000000000000000000000000000000000000000000000000000000000000000000000000000000000000000000000000000000000000000000000000000000000000000000000000000000000000000000000000000000000000000000000000000000000000000000000000000000000000000000000000000000
310
00000000000000000000000000000000000000000000000000000000000000000000000000000000000000000000000000000000000000000000000000000000000000000000000000000000000000000000000000000000000000000000000000000000000000000000000000000000000000000000000000000000000000
310
00000000000000000000000000000000000000000000000000000000000000000000000000000000000000000000000000000000000000000000000000000000000000000000000000000000000000000000000000000000000000000000000000000000000000000000000000000000000000000000000000000000000000
310
00000000000000000000000000000000000000000000000000000000000000000000000000000000000000000000000000000000000000000000000000000000000000000000000000000000000000000000000000000000000000000000000000000000000000000000000000000000000000000000000000000000000000
310
00000000000000000000000000000000000000000000000000000000000000000000000000000000000000000000000000000000000000000000000000000000000000000000000000000000000000000000000000000000000000000000000000000000000000000000000000000000000000000000000000000000000000
310
00000000000000000000000000000000000000000000000000000000000000000000000000000000000000000000000000000000000000000000000000000000000000000000000000000000000000000000000000000000000000000000000000000000000000000000000000000000000000000000000000000000000000
310
00000000000000000000000000000000000000000000000000000000000000000000000000000000000000000000000000000000000000000000000000000000000000000000000000000000000000000000000000000000000000000000000000000000000000000000000000000000000000000000000000000000000000
310
00000000000000000000000000000000000000000000000000000000000000000000000000000000000000000000000000000000000000000000000000000000000000000000000000000000000000000000000000000000000000000000000000000000000000000000000000000000000000000000000000000000000000
310
00000000000000000000000000000000000000000000000000000000000000000000000000000000000000000000000000000000000000000000000000000000000000000000000000000000000000000000000000000000000000000000000000000000000000000000000000000000000000000000000000000000000000
310
00000000000000000000000000000000000000000000000000000000000000000000000000000000000000000000000000000000000000000000000000000000000000000000000000000000000000000000000000000000000000000000000000000000000000000000000000000000000000000000000000000000000000
310
00000000000000000000000000000000000000000000000000000000000000000000000000000000000000000000000000000000000000000000000000000000000000000000000000000000000000000000000000000000000000000000000000000000000000000000000000000000000000000000000000000000000000
310
00000000000000000000000000000000000000000000000000000000000000000000000000000000000000000000000000000000000000000000000000000000000000000000000000000000000000000000000000000000000000000000000000000000000000000000000000000000000000000000000000000000000000
310
00000000000000000000000000000000000000000000000000000000000000000000000000000000000000000000000000000000000000000000000000000000000000000000000000000000000000000000000000000000000000000000000000000000000000000000000000000000000000000000000000000000000000
310
00000000000000000000000000000000000000000000000000000000000000000000000000000000000000000000000000000000000000000000000000000000000000000000000000000000000000000000000000000000000000000000000000000000000000000000000000000000000000000000000000000000000000
310
00000000000000000000000000000000000000000000000000000000000000000000000000000000000000000000000000000000000000000000000000000000000000000000000000000000000000000000000000000000000000000000000000000000000000000000000000000000000000000000000000000000000000
310
00000000000000000000000000000000000000000000000000000000000000000000000000000000000000000000000000000000000000000000000000000000000000000000000000000000000000000000000000000000000000000000000000000000000000000000000000000000000000000000000000000000000000
310
00000000000000000000000000000000000000000000000000000000000000000000000000000000000000000000000000000000000000000000000000000000000000000000000000000000000000000000000000000000000000000000000000000000000000000000000000000000000000000000000000000000000000
310
00000000000000000000000000000000000000000000000000000000000000000000000000000000000000000000000000000000000000000000000000000000000000000000000000000000000000000000000000000000000000000000000000000000000000000000000000000000000000000000000000000000000000
310
00000000000000000000000000000000000000000000000000000000000000000000000000000000000000000000000000000000000000000000000000000000000000000000000000000000000000000000000000000000000000000000000000000000000000000000000000000000000000000000000000000000000000
310
00000000000000000000000000000000000000000000000000000000000000000000000000000000000000000000000000000000000000000000000000000000000000000000000000000000000000000000000000000000000000000000000000000000000000000000000000000000000000000000000000000000000000
310
00000000000000000000000000000000000000000000000000000000000000000000000000000000000000000000000000000000000000000000000000000000000000000000000000000000000000000000000000000000000000000000000000000000000000000000000000000000000000000000000000000000000000
310
00000000000000000000000000000000000000000000000000000000000000000000000000000000000000000000000000000000000000000000000000000000000000000000000000000000000000000000000000000000000000000000000000000000000000000000000000000000000000000000000000000000000000
310
00000000000000000000000000000000000000000000000000000000000000000000000000000000000000000000000000000000000000000000000000000000000000000000000000000000000000000000000000000000000000000000000000000000000000000000000000000000000000000000000000000000000000
310
00000000000000000000000000000000000000000000000000000000000000000000000000000000000000000000000000000000000000000000000000000000000000000000000000000000000000000000000000000000000000000000000000000000000000000000000000000000000000000000000000000000000000
310
00000000000000000000000000000000000000000000000000000000000000000000000000000000000000000000000000000000000000000000000000000000000000000000000000000000000000000000000000000000000000000000000000000000000000000000000000000000000000000000000000000000000000
310
00000000000000000000000000000000000000000000000000000000000000000000000000000000000000000000000000000000000000000000000000000000000000000000000000000000000000000000000000000000000000000000000000000000000000000000000000000000000000000000000000000000000000
310
00000000000000000000000000000000000000000000000000000000000000000000000000000000000000000000000000000000000000000000000000000000000000000000000000000000000000000000000000000000000000000000000000000000000000000000000000000000000000000000000000000000000000
310
00000000000000000000000000000000000000000000000000000000000000000000000000000000000000000000000000000000000000000000000000000000000000000000000000000000000000000000000000000000000000000000000000000000000000000000000000000000000000000000000000000000000000
310
00000000000000000000000000000000000000000000000000000000000000000000000000000000000000000000000000000000000000000000000000000000000000000000000000000000000000000000000000000000000000000000000000000000000000000000000000000000000000000000000000000000000000
310
00000000000000000000000000000000000000000000000000000000000000000000000000000000000000000000000000000000000000000000000000000000000000000000000000000000000000000000000000000000000000000000000000000000000000000000000000000000000000000000000000000000000000
310
00000000000000000000000000000000000000000000000000000000000000000000000000000000000000000000000000000000000000000000000000000000000000000000000000000000000000000000000000000000000000000000000000000000000000000000000000000000000000000000000000000000000000
310
00000000000000000000000000000000000000000000000000000000000000000000000000000000000000000000000000000000000000000000000000000000000000000000000000000000000000000000000000000000000000000000000000000000000000000000000000000000000000000000000000000000000000
310
00000000000000000000000000000000000000000000000000000000000000000000000000000000000000000000000000000000000000000000000000000000000000000000000000000000000000000000000000000000000000000000000000000000000000000000000000000000000000000000000000000000000000
310
00000000000000000000000000000000000000000000000000000000000000000000000000000000000000000000000000000000000000000000000000000000000000000000000000000000000000000000000000000000000000000000000000000000000000000000000000000000000000000000000000000000000000
310
00000000000000000000000000000000000000000000000000000000000000000000000000000000000000000000000000000000000000000000000000000000000000000000000000000000000000000000000000000000000000000000000000000000000000000000000000000000000000000000000000000000000000
310
00000000000000000000000000000000000000000000000000000000000000000000000000000000000000000000000000000000000000000000000000000000000000000000000000000000000000000000000000000000000000000000000000000000000000000000000000000000000000000000000000000000000000
310
00000000000000000000000000000000000000000000000000000000000000000000000000000000000000000000000000000000000000000000000000000000000000000000000000000000000000000000000000000000000000000000000000000000000000000000000000000000000000000000000000000000000000
310
00000000000000000000000000000000000000000000000000000000000000000000000000000000000000000000000000000000000000000000000000000000000000000000000000000000000000000000000000000000000000000000000000000000000000000000000000000000000000000000000000000000000000
310
00000000000000000000000000000000000000000000000000000000000000000000000000000000000000000000000000000000000000000000000000000000000000000000000000000000000000000000000000000000000000000000000000000000000000000000000000000000000000000000000000000000000000
310
00000000000000000000000000000000000000000000000000000000000000000000000000000000000000000000000000000000000000000000000000000000000000000000000000000303030303030303030303030303030303030303030303030303030303030303030303030300000000000000000000000000000000
310
00000000000000000000000000000000000000000000000000000000000000000000000000000000000000000000000000000000000000000000000000000000000000000000000000000000000000000000000000000000000000000000000000000000000000000000000000000000000000000000000000000000000000
310
03000000000000000000000000030303030303000303000300000000000000000000000003000000000000000000000000000000000000000000000000000000000000000000000000000000000000000000000000000000000000000000000000000000000000000000000000000000000000000000000000000000000000
310
00000000000000000000000000000000000000000000000000000000000000000000000000000000000000000000000000000000000300000000000000000000000003030303030300030303030000000000000000000000000300000000000000000000000000000000000000000000000000000000000000000000000000
310
00000000000000000000000000000000000000000000000000000000000000000000000000000000000000000000000000000000000000000000000000000000000000000000000000000000000000000000000000000000000000000000000000000000000000000000030000000000000000000000000000000000000000
310
00000000000000000000000000000003000000000000000000000000000000000000000000000000000000000000000000000000000000000000000000000000000000000000000000000000000000000000000000000000000000000000000000000000000000000000000000000000000000000000000000000000000000
310
00000000000000000000000000000000000000000000000000030300000000000300000000000000000000000000000000000000000000000000000000000000000000000300000003030000000000000000000000000000000000000000000000000000000000000000000000000000000000000000000000000000000000
310
00000000000000000000000000000000000000000000000000000000000000000000000000000000000000000000000000000000000000000000000000000000000000000000000000000000000003000303030000030000000000000000000000000000000000000000000000000000000000000000000000030003030003
310
00000000000000000000000000000000000000000000000000000000000000000000000000000000000000000000000000000000000000000000000000000000000000000000000000000000000000000000000000000000000000000000000000000000000000000000000000000000000000000000000000000000000000
310
00000003000000000003030307070707070703070707070707070707070707070707070707070703030707070707070303000000030000000000000000000000000000000000000000000000000000000000000000000000000000000000000000000000000000000000000000000000000000000000000000000000000000
310
00000000000000000000000000000000000000000000000000000000000000000000000000000000000000000000000000000000000000000300000000000000070000000000030000000000000000000000000000000000000000000003000000000000070000000000030000000000000000000000000000000000000000
310
00000000000000000000000000000000000000000000000000000000000000000000000000000000000000000000000000000000000000000000000000000000000000000000000000000000000000000000000000000000000000000000000000000000000000000000000000030000000000000700000000000003000000
310
00000000000000000000000000000000000000030000000000000007000000000300000000000000000000000000000000000000000000000000000000000000000000000000000000000000000000000000000000000000000000000000000000000000000000000000000000000000000000000000000000000000000000
310
00000000000000000000000000000000000000000000000000000000000000000000000300000000000007000000000003000000000000000000000000000000000000000000030300030000000000000700000000030000000000000000000000000000000000000000000000000000000000000000000000000000000000
310
00000000000000000000000000000000000000000000000000000000000000000000000000000000000000000000000000000000000000000000000000000000000000000000000000000000000000000000000000000003000000000000000700000000000303030303000000000000000000000000000000000303030303
310
00000000000007000000000300000000000000000000000000000000000000000000000000000000000000000000000000000000000000000000000000000000000000000000000000000000000000000000000000000000000000000000000000000000000000000000000000000000000000000000000000000000000000
310
00000000000000000000000000030000000000000007000000030303030303000000000000000000000000000000000003030003030300000000000700000000000300000000000000000000000000000000000000000000000000000000000000000000000000000000000000000000000000000000000000000000000000
310
00000000000000000000000000000000000000000000000000000000000000000000000000000000000000000000000000000000000000000000000000000000000003000000000000070000030303030003030000000000000000000000000000000000000003030303030300000000000700000000030000000000000000
310
00000000000000000000000000000000000000000000000000000000000000000000000000000000000000000000000000000000000000000000000000000000000000000000000000000000000000000000000000000000000000000000000000000000000000000000000000000000000000000000030000000000000003
310
03030003030300000000000000000000000000000000000000000000000003030303030303030303000000000300000000000000000000000000000000000000000000000000000000000000000000000000000000000000000000000000000000000000000000000000000000000000000000000000000000000000000000
310
00000000000000000000000000000000000000000000000000000000000000000000000000000000000000000300000000000000070000030303030300000000000000000000000000000000000000000000000000030003030000000700000000030000000000000000000000000000000000000000000000000000000000
310
00000000000000000000000000000000000000000000000000000000000000000000000000000000000000000000000000000000000000000000000000000000000000000000000000000000000000000000000000000000000000000000000000030000000000000700000300030300000000000000000000000000000000
310
00000000000000000000000303000300000007000000000003000000000000000000000000000000000000000000000000000000000000000000000000000000000000000000000000000000000000000000000000000000000000000000000000000000000000000000000000000000000000000000000000000000000000
310
00000000000000000000000000000000000000000000000300000000000007000000030000000000000000000000000000000000000000000000000000000000000003030000000007000000000300000000000000000000000000000000000000000000000000000000000000000000000000000000000000000000000000
310
00000000000000000000000000000000000000000000000000000000000000000000000000000000000000000000000000000000000000000000000000000000000000000000000000000003000000000000000700000000000000000000000000000000000000000000000000000000000000000000000000000000000700
310
00000003000000000000000000000000000000000000000000000000000000000000000000000000000000000000000000000000000000000000000000000000000000000000000000000000000000000000000000000000000000000000000000000000000000000000000000000000000000000000000000000000000000
310
00030000000000000007000000000000000000000000000000000000000000000000000000000003030300000000000000000007000000000300000000000000000000000000000000000000000000000000000000000000000000000000000000000000000000000000000000000000000000000000000000000000000000
310
00000000000000000000000000000000000000000000000000000000000000000000000000000000000000000000000000000000000003000000000000070000000000000000000000000000000000000000000000000000000000000303030000000000000000000700000000000300000000000000000000000000000000
310
00000000000000000000000000000000000000000000000000000000000000000000000000000000000000000000000000000000000000000000000000000000000000000000000000000000000000000000000000000000000000000000000000000000000000000000030000000000000007000000000000000000000000
310
00000000000000000000000000000000000000030303000000000000000000070000000003000000000000000000000000000000000000000000000000000000000000000000000000000000000000000000000000000000000000000000000000000000000000000000000000000000000000000000000000000000000000
310
00000000000000000000000000000000000000000000000000000000000000000300000000000000070000000000000000000000000000000000000000000000000000000000000003030300000000000000000007000000000300000000000000000000000000000000000000000000000000000000000000000000000000
310
00000000000000000000000000000000000000000000000000000000000000000000000000000000000000000000000000000000000000000000000000000000000000000000000000000000000000000000000000030303000000000700000000000000000000000000000000000000000000000000000000000000000303
310
03000000000000000000070000000003000000000000000000000000000000000000000000000000000000000000000000000000000000000000000000000000000000000000000000000000000000000000000000000000000000000000000000000000000000000000000000000000000000000000000000000000000000
310
00000000000000000000030303000000000007000000000000000000000000000000000000000000000000000000000000000003030300000000000000000007000000030303000000000000000000000000000000000000000000000000000000000000000000000000000000000000000000000000000000000000000000
310
00000000000000000000000000000000000000000000000000000000000000000000000000000000000000000000000000000000000000000000000000000003030303000000000700000000000000000000000000000000000000000000000000000000000000000303030000000000000000000007000003030300000000
310
00000000000000000000000000000000000000000000000000000000000000000000000000000000000000000000000000000000000000000000000000000000000000000000000000000000000000000000000000000000000000000000000000000000000000000000000000000000000000000303030000000007070700
310
00000000000000000000000000000000000000000000000000000000000000030303000000000000000707070000030303000000000000000000000000000000000000000000000000000000000000000000000000000000000000000000000000000000000000000000000000000000000000000000000000000000000000
310
00000000000000000000000000000000000000000000000000000000000000000000000000000000000003030000000000070707070707070700000000000000000000000000000000000000000000000000000000000300000707070707070707000000030303000000000000000000000000000000000000000000000000
310
00000000000000000000000000000000000000000000000000000000000000000000000000000000000000000000000000000000000000000000000000000000000000000000000000000000000000000000000000000000000000000000000300000000000007000007070707070707070707070000000000000000000000
310
00000000000000000000070703070707070707070000070000000300030000000000000000000000000000000000000000000000000000000000000000000000000000000000000000000000000000000000000000000000000000000000000000000000000000000000000000000000000000000000000000000000000000
310
00000000000000000000000000000000000000000300000000000000070000000000000007070707070707070707070707070707070707070707070707070707070707070000000000000000070000000003000000000000000000000000000000000000000000000000000000000000000000000000000000000000000000
310
00000000000000000000000000000000000000000000000000000000000000000000000000000000000000000000000000000000000000000000000000000000000000000000000000030000000000000303030300000000000000000000000707070707070707070707070707070707070707070000000000000000000000
310
03030300000000030000000000000000000000000000000000000000000000000000000000000000000000000000000000000000000000000000000000000000000000000000000000000000000000000000000000000000000000000000000000000000000000000000000000000000000000000000000000000000000003
310
00000000000007000000030303030300000000000000000000000000000000000000000000000000000000000000000003030303030000070000000000030000000000000000000000000000000000000000000000000000000000000000000000000000000000000000000000000000000000000000000000000000000000
310
00000000000000000000000000000000000000000000000000000000000000000000000000000000000000000000000000000003000000000000000700000000000000000303030303030000000000000000000000000000000000000000000303030303030000000000000007000000000003000000000000000000000000
310
00000000000000000000000000000000000000000000000000000000000000000000000000000000000000000000000000000000000000000000000000000000000000000000000000000000000000000000000000000000000000000000000000000000000000000300000000000000070000000000000000000000000000
310
03030303030303030303030303030303030303030300000000000000000000000000000700000000030000000000000000000000000000000000000000000000000000000000000000000000000000000000000000000000000000000000000000000000000000000000000000000000000000000000000000000000000000
310
00000000000000000000000000000000000000000000000000000000000003000000000000070003030300000000000000000000000000000000030303030303030303000000000000000000000000000000000000000303070000000003000000000000000000000000000000000000000000000000000000000000000000
310
00000000000000000000000000000000000000000000000000000000000000000000000000000000000000000000000000000000000000000000000000000000000000000000000000000000000000000000000300000000000007000303030000000000000000000000000000000003030303000303030303000000000000
310
00000000000000000000000303000700000000000300000000000000000000000000000000000000000000000000000000000000000000000000000000000000000000000000000000000000000000000000000000000000000000000000000000000000000000000000000000000000000000000000000000000000000000
310
00000000000000000300000000000000070300030000000000000000000000000000000000000000000000000000000000000000000000000000000000000000000303030000000000030000000000000000000000000000000000000000000000000000000000000000000000000000000000000000000000000000000000
310
00000000000000000000000000000000000000000000000000000000000000000000000000000000000000000000000000000000000000000000000000030000000000000007030303000000000000000000000000000000000000000000000000000000000000000000000000000000000000000000000303070000000003
310
00000000000000000000000000000000000000000000000000000000000000000000000000000000000000000000000000000000000000000000000000000000000000000000000000000000000000000000000000000000000000000000000000000000000000000000000000000000000003000000000000070003030300
310
00000000000000000000000000000000000000000000000000000000000000000000000000000000000000000303030700000000030000000000000000000000000000000000000000000000000000000000000000000000000000000000000000000000000000000000000000000000000000000000000000000000000000
310
00000000000000000000000000000000000000000000000000000000000000000000000000000003000000000000000700000303000000000000000000000002000202020000000000000000000000000000000000000000000000000000000000030303030000000000030000000000000000000000000000000000000000
310
00000000000000000000000000000000000000000000000000000000000000000000000000000000000000000000000000000000000000000000000000000000000000000000000000000000000000000000000000000000000000000300000000000000070303030000000000000000000000000202020200000000000000
310
00000000000000000000000000000000000000000000000003030300000000000300000000000000000000000000000000000000000000000000000000000000000000000000000000000000000000000000000000000000000000000000000000000000000000000000000000000000000000000000000000000000000000
310
00000000000000000000000000000000000003000000000000070000030300000000000000000000000002000202020000000000000000000000000000000000000000000000000000000000000303000700000000030000000000000000000000000000000000000000000000000000000000000000000000000000000000
310
00000000000000000000000000000000000000000000000000000000000000000000000000000000000000000000000000000000000000000000000000000000000000000000000300000000000007000000000000000000000000000000000000000000000000000000000000000000000000000000000000000000000000
310
00000000000007000000000300000000000000000000000000000000000000000000000000000000000000000000000000000000000000000000000000000000000000000000000000000000000000000000000000000000000000000000000000000000000000000000000000000000000000000000000000000003000000
310
00000000070000000000000000000000000000000002020202020002020202020002020202020202020202020202000000000000000000000000000700000000000300000000000000000000000000000000000000000000000000000000000000000000000000000000000000000000000000000000000000000000000000
310
00000000000000000000000000000000000000000000000000000000000000000000000000000000000000000000000000030300000000000007000000000000000000000000000000000202020202000202020202020202020202020202020202020000000000000000000000000000070000000000030300000000000000
310
00000000000000000000000000000000000000000000000000000000000000000000000000000000000000000000000000000000000000000000000000000000000000000000000000000000000000000000000000000000000000000000000000000000000000000303030300070000000000000000000000000000000000
310
00020000000000020000020000000002000000020000020200000000000000000000000000000007000003030000000000000000000000000000000000000000000000000000000000000000000000000000000000000000000000000000000000000000000000000000000000000000000000000000000000000000000000
310
00000000000000000000000000000000000000000000000000000000000000000000030307070707070707070707070707070707070707070707070707070707070707070707070707070707070707070707070707070707070707070303030000000000000000000000000000000000000000000000000000000000000000
310
00000000000000000000000000000000000000000000000000000000000000000000000000000000000000000000000000000000000000000000000000000000000000000000000000000000000000000000000000000000030000000000000000000000000000000000000000000000000000000000000000000000000000
310
00000000000000000000000000000000000003000000000000000000000000000000000000000000000000000000000000000000000000000000000000000000000000000000000000000000000000000000000000000000000000000000000000000000000000000000000000000000000000000000000000000000000000
310
00000000000000000000000000000303030303030303030303030303030303030303030303030303030303030303030303030303030303030303030303030303030303030303030300000000000000000000000000000000000000000000000000000000000000000000000000000000000000000000000000000000000000
310
00000000000000000000000000000000000000000000000000000000000000000000000000000000000000000000000000000000000000000000000000000000000000000000000000000000000000000000000000000000000000000303030303030303030000000000000000000000000000000000000000000000000000
310
00000000000000000000000000000000000000000000000000000000000000000000000000000000000000000000000000000000000000000000000000000000000000000000000000000000000000000000000000000000000000000000000000000000000000000000000000000000000000000000000000000000000000
310
00000000000000000000000000000000000003030303030300030300000000000000000000000000000000000000000000000000000000000000000000000000000000000000000000000000000000000000000000000000000000000000000000000000000000000000000000000000000000000000000000000000000000
310
00000000000000000000000000000000000000000000000000000000000000000000000000000000000000000000000000000000000000000000000000000000000000000000000303030303030000030000000000000000000000000000000000000000000000000000000000000000000000000000000000000000000000
310
00000000000000000000000000000000000000000000000000000000000000000000000000000000000000000000000000000000000000000000000000000000000000000000000000000000000000000000000000000000000000000000000000000000000000000000000000000000000000000000000000000000000000
310
00000000000000000000000000000000000000000000000000000000000000000000000000000000000000000000000000000000000000000000000000000000000000000000000000000000000000000000000000000000000000000000000000000000000000000000000000000000000000000000000000000000000000
310
00000000000000000000000000000000000000000000000000000000000000000000000000000000000000000000000000000000000000000000000000000000000000000000000000000000000000000000000000000000000000000000000000000000000000000000000000000000000000000000000000000000000000
310
00000000000000000000000000000000000000000000000000000000000000000000000000000000000000000000000000000000000000000000000000000000000000000000000000000000000000000000000000000000000000000000000000000000000000000000000000000000000000000000000000000000000000
310
00000000000000000000000000000000000000000000000000000000000000000000000000000000000000000000000000000000000000000000000000000000000000000000000000000000000000000000000000000000000000000000000000000000000000000000000000000000000000000000000000000000000000
310
00000000000000000000000000000000000000000000000000000000000000000000000000000000000000000000000000000000000000000000000000000000000000000000000000000000000000000000000000000000000000000000000000000000000000000000000000000000000000000000000000000000000000
310
00000000000000000000000000000000000000000000000000000000000000000000000000000000000000000000000000000000000000000000000000000000000000000000000000000000000000000000000000000000000000000000000000000000000000000000000000000000000000000000000000000000000000
310
00000000000000000000000000000000000000000000000000000000000000000000000000000000000000000000000000000000000000000000000000000000000000000000000000000000000000000000000000000000000000000000000000000000000000000000000000000000000000000000000000000000000000
310
000000000000000000000000000000000000000000000000000000000000000000000000000000000000000000000000000000000000000000000000000000000000000000000000000000000000000000000000000000000000000000000000000000000000000000000000
  0
ENDSEC
  0
EOF
