  0
SECTION
  2
HEADER
  9
$ACADVER
  1
AC1009
  9
$DWGCODEPAGE
  3
ansi_1252
  9
$INSBASE
 10
0.0
 20
0.0
 30
0.0
  9
$EXTMIN
 10
-124.3429434098332
 20
-200.0
 30
0.0
  9
$EXTMAX
 10
1000.0
 20
347.1326578571157
 30
0.0
  9
$LIMMIN
 10
0.0
 20
0.0
  9
$LIMMAX
 10
420.0
 20
297.0
  9
$ORTHOMODE
 70
     0
  9
$REGENMODE
 70
     1
  9
$FILLMODE
 70
     1
  9
$QTEXTMODE
 70
     0
  9
$MIRRTEXT
 70
     0
  9
$DRAGMODE
 70
     2
  9
$LTSCALE
 40
1.0
  9
$OSMODE
 70
    37
  9
$ATTMODE
 70
     1
  9
$TEXTSIZE
 40
50.0
  9
$TRACEWID
 40
1.0
  9
$TEXTSTYLE
  7
STANDARD
  9
$CLAYER
  8
0
  9
$CELTYPE
  6
BYLAYER
  9
$CECOLOR
 62
   256
  9
$DIMSCALE
 40
1.0
  9
$DIMASZ
 40
2.5
  9
$DIMEXO
 40
0.625
  9
$DIMDLI
 40
3.75
  9
$DIMRND
 40
0.0
  9
$DIMDLE
 40
0.0
  9
$DIMEXE
 40
1.25
  9
$DIMTP
 40
0.0
  9
$DIMTM
 40
0.0
  9
$DIMTXT
 40
50.0
  9
$DIMCEN
 40
2.5
  9
$DIMTSZ
 40
0.0
  9
$DIMTOL
 70
     0
  9
$DIMLIM
 70
     0
  9
$DIMTIH
 70
     0
  9
$DIMTOH
 70
     0
  9
$DIMSE1
 70
     0
  9
$DIMSE2
 70
     0
  9
$DIMTAD
 70
     1
  9
$DIMZIN
 70
     8
  9
$DIMBLK
  1

  9
$DIMASO
 70
     1
  9
$DIMSHO
 70
     1
  9
$DIMPOST
  1

  9
$DIMAPOST
  1

  9
$DIMALT
 70
     0
  9
$DIMALTD
 70
     3
  9
$DIMALTF
 40
0.03937007874016
  9
$DIMLFAC
 40
1.0
  9
$DIMTOFL
 70
     1
  9
$DIMTVP
 40
0.0
  9
$DIMTIX
 70
     0
  9
$DIMSOXD
 70
     0
  9
$DIMSAH
 70
     0
  9
$DIMBLK1
  1

  9
$DIMBLK2
  1

  9
$DIMSTYLE
  2
ISO-25
  9
$DIMCLRD
 70
     0
  9
$DIMCLRE
 70
     0
  9
$DIMCLRT
 70
     0
  9
$DIMTFAC
 40
1.0
  9
$DIMGAP
 40
0.625
  9
$LUNITS
 70
     2
  9
$LUPREC
 70
     4
  9
$SKETCHINC
 40
1.0
  9
$FILLETRAD
 40
0.0
  9
$AUNITS
 70
     0
  9
$AUPREC
 70
     0
  9
$MENU
  1
.
  9
$ELEVATION
 40
0.0
  9
$PELEVATION
 40
0.0
  9
$THICKNESS
 40
0.0
  9
$LIMCHECK
 70
     0
  9
$CHAMFERA
 40
0.0
  9
$CHAMFERB
 40
0.0
  9
$SKPOLY
 70
     0
  9
$TDCREATE
 40
2453353.800459155
  9
$TDUPDATE
 40
2454566.141497778
  9
$TDINDWG
 40
4895786.051922963
  9
$TDUSRTIMER
 40
9763448.072853334
  9
$USRTIMER
 70
     1
  9
$ANGBASE
 50
0.0
  9
$ANGDIR
 70
     0
  9
$PDMODE
 70
     0
  9
$PDSIZE
 40
0.0
  9
$PLINEWID
 40
9.0
  9
$COORDS
 70
     1
  9
$SPLFRAME
 70
     0
  9
$SPLINETYPE
 70
     6
  9
$SPLINESEGS
 70
     8
  9
$ATTDIA
 70
     0
  9
$ATTREQ
 70
     1
  9
$HANDLING
 70
     1
  9
$HANDSEED
  5
CE
  9
$SURFTAB1
 70
     6
  9
$SURFTAB2
 70
     6
  9
$SURFTYPE
 70
     6
  9
$SURFU
 70
     6
  9
$SURFV
 70
     6
  9
$UCSNAME
  2

  9
$UCSORG
 10
0.0
 20
0.0
 30
0.0
  9
$UCSXDIR
 10
1.0
 20
0.0
 30
0.0
  9
$UCSYDIR
 10
0.0
 20
1.0
 30
0.0
  9
$PUCSNAME
  2

  9
$PUCSORG
 10
0.0
 20
0.0
 30
0.0
  9
$PUCSXDIR
 10
1.0
 20
0.0
 30
0.0
  9
$PUCSYDIR
 10
0.0
 20
1.0
 30
0.0
  9
$USERI1
 70
     0
  9
$USERI2
 70
     0
  9
$USERI3
 70
     0
  9
$USERI4
 70
     0
  9
$USERI5
 70
     0
  9
$USERR1
 40
0.0
  9
$USERR2
 40
0.0
  9
$USERR3
 40
0.0
  9
$USERR4
 40
0.0
  9
$USERR5
 40
0.0
  9
$WORLDVIEW
 70
     1
  9
$SHADEDGE
 70
     3
  9
$SHADEDIF
 70
    70
  9
$TILEMODE
 70
     1
  9
$MAXACTVP
 70
    64
  9
$PLIMCHECK
 70
     0
  9
$PEXTMIN
 10
0.0
 20
0.0
 30
0.0
  9
$PEXTMAX
 10
0.0
 20
0.0
 30
0.0
  9
$PLIMMIN
 10
0.0
 20
0.0
  9
$PLIMMAX
 10
12.0
 20
9.0
  9
$UNITMODE
 70
     0
  9
$VISRETAIN
 70
     1
  9
$PLINEGEN
 70
     0
  9
$PSLTSCALE
 70
     1
  0
ENDSEC
  0
SECTION
  2
TABLES
  0
TABLE
  2
VPORT
 70
     1
  0
VPORT
  2
*ACTIVE
 70
     0
 10
0.0
 20
0.0
 11
1.0
 21
1.0
 12
579.4265164041303
 22
-52.7065754044726
 13
0.0
 23
0.0
 14
0.5
 24
0.5
 15
0.5
 25
0.5
 16
0.0
 26
0.0
 36
1.0
 17
0.0
 27
0.0
 37
0.0
 40
1326.99702506343
 41
1.333333333333333
 42
50.0
 43
0.0
 44
0.0
 50
0.0
 51
0.0
 71
    16
 72
   100
 73
     0
 74
     1
 75
     0
 76
     0
 77
     0
 78
     0
  0
ENDTAB
  0
TABLE
  2
LTYPE
 70
     1
  0
LTYPE
  2
CONTINUOUS
 70
     0
  3
CONTINUOUS
 72
    65
 73
     0
 40
0.0
  0
ENDTAB
  0
TABLE
  2
LAYER
 70
     3
  0
LAYER
  2
0
 70
     0
 62
     7
  6
CONTINUOUS
  0
LAYER
  2
INFO
 70
     0
 62
     3
  6
CONTINUOUS
  0
LAYER
  2
DEFPOINTS
 70
     0
 62
     7
  6
CONTINUOUS
  0
ENDTAB
  0
TABLE
  2
STYLE
 70
     1
  0
STYLE
  2
STANDARD
 70
     0
 40
0.0
 41
1.0
 50
0.0
 71
     0
 42
2.5
  3
txt
  4

  0
ENDTAB
  0
TABLE
  2
VIEW
 70
     0
  0
ENDTAB
  0
TABLE
  2
UCS
 70
     0
  0
ENDTAB
  0
TABLE
  2
APPID
 70
     1
  0
APPID
  2
ACAD
 70
     0
  0
ENDTAB
  0
TABLE
  2
DIMSTYLE
 70
     2
  0
DIMSTYLE
  2
STANDARD
 70
     0
  3

  4

  5

  6

  7

 40
1.0
 41
0.18
 42
0.0625
 43
0.38
 44
0.18
 45
0.0
 46
0.0
 47
0.0
 48
0.0
140
0.18
141
0.09
142
0.0
143
25.4
144
1.0
145
0.0
146
1.0
147
0.09
 71
     0
 72
     0
 73
     1
 74
     1
 75
     0
 76
     0
 77
     0
 78
     0
170
     0
171
     2
172
     0
173
     0
174
     0
175
     0
176
     0
177
     0
178
     0
  0
DIMSTYLE
  2
ISO-25
 70
     0
  3

  4

  5

  6

  7

 40
1.0
 41
2.5
 42
0.625
 43
3.75
 44
1.25
 45
0.0
 46
0.0
 47
0.0
 48
0.0
140
2.5
141
2.5
142
0.0
143
0.03937007874016
144
1.0
145
0.0
146
1.0
147
0.625
 71
     0
 72
     0
 73
     0
 74
     0
 75
     0
 76
     0
 77
     1
 78
     8
170
     0
171
     3
172
     1
173
     0
174
     0
175
     0
176
     0
177
     0
178
     0
  0
ENDTAB
  0
ENDSEC
  0
SECTION
  2
BLOCKS
  0
BLOCK
  8
0
  2
$MODEL_SPACE
 70
     0
 10
0.0
 20
0.0
 30
0.0
  3
$MODEL_SPACE
  1

  0
ENDBLK
  5
21
  8
0
  0
BLOCK
 67
     1
  8
0
  2
$PAPER_SPACE
 70
     0
 10
0.0
 20
0.0
 30
0.0
  3
$PAPER_SPACE
  1

  0
ENDBLK
  5
76
 67
     1
  8
0
  0
BLOCK
  8
0
  2
*D1
 70
     1
 10
0.0
 20
0.0
 30
0.0
  3
*D1
  1

  0
LINE
  5
43
  8
INFO
 62
     0
 10
0.0
 20
200.0625
 30
0.0
 11
0.0
 21
296.6876578571157
 31
0.0
  0
LINE
  5
44
  8
INFO
 62
     0
 10
1000.0
 20
200.0625
 30
0.0
 11
1000.0
 21
296.6876578571157
 31
0.0
  0
LINE
  5
45
  8
INFO
 62
     0
 10
0.18
 20
296.5076578571157
 30
0.0
 11
337.91
 21
296.5076578571157
 31
0.0
  0
LINE
  5
46
  8
INFO
 62
     0
 10
999.8200000000001
 20
296.5076578571157
 30
0.0
 11
662.09
 21
296.5076578571157
 31
0.0
  0
SOLID
  5
47
  8
INFO
 62
     0
 10
0.18
 20
296.5376578571157
 30
0.0
 11
0.18
 21
296.4776578571157
 31
0.0
 12
0.0
 22
296.5076578571157
 32
0.0
 13
0.0
 23
296.5076578571157
 33
0.0
  0
SOLID
  5
48
  8
INFO
 62
     0
 10
999.8200000000001
 20
296.4776578571157
 30
0.0
 11
999.8200000000001
 21
296.5376578571156
 31
0.0
 12
1000.0
 22
296.5076578571157
 32
0.0
 13
1000.0
 23
296.5076578571157
 33
0.0
  0
TEXT
  5
49
  8
INFO
 62
     0
 10
338.0
 20
271.5076578571157
 30
0.0
 40
50.0
  1
1000.0000
  0
POINT
  5
4A
  8
DEFPOINTS
 62
     0
 10
0.0
 20
200.0
 30
0.0
  0
POINT
  5
BE
  8
DEFPOINTS
 62
     0
 10
1000.0
 20
200.0
 30
0.0
  0
POINT
  5
BF
  8
DEFPOINTS
 62
     0
 10
1000.0
 20
296.5076578571157
 30
0.0
  0
ENDBLK
  5
B9
  8
0
  0
BLOCK
  8
0
  2
*D2
 70
     1
 10
0.0
 20
0.0
 30
0.0
  3
*D2
  1

  0
LINE
  5
4F
  8
INFO
 62
     0
 10
-0.0625
 20
200.0
 30
0.0
 11
-73.89794340983318
 21
200.0
 31
0.0
  0
LINE
  5
50
  8
INFO
 62
     0
 10
-0.0625
 20
-200.0
 30
0.0
 11
-73.8979434098332
 21
-200.0
 31
0.0
  0
LINE
  5
51
  8
INFO
 62
     0
 10
-73.71794340983317
 20
199.82
 30
0.0
 11
-73.71794340983317
 21
149.59
 31
0.0
  0
LINE
  5
52
  8
INFO
 62
     0
 10
-73.7179434098332
 20
-199.82
 30
0.0
 11
-73.7179434098332
 21
-149.59
 31
0.0
  0
SOLID
  5
53
  8
INFO
 62
     0
 10
-73.68794340983317
 20
199.82
 30
0.0
 11
-73.74794340983317
 21
199.82
 31
0.0
 12
-73.71794340983317
 22
200.0
 32
0.0
 13
-73.71794340983317
 23
200.0
 33
0.0
  0
SOLID
  5
54
  8
INFO
 62
     0
 10
-73.7479434098332
 20
-199.82
 30
0.0
 11
-73.6879434098332
 21
-199.82
 31
0.0
 12
-73.7179434098332
 22
-200.0
 32
0.0
 13
-73.7179434098332
 23
-200.0
 33
0.0
  0
TEXT
  5
55
  8
INFO
 62
     0
 10
-48.7179434098332
 20
-149.5
 30
0.0
 40
50.0
  1
400.0000
 50
90.0
  0
POINT
  5
56
  8
DEFPOINTS
 62
     0
 10
0.0
 20
200.0
 30
0.0
  0
POINT
  5
C0
  8
DEFPOINTS
 62
     0
 10
0.0
 20
-200.0
 30
0.0
  0
POINT
  5
C1
  8
DEFPOINTS
 62
     0
 10
-73.7179434098332
 20
-200.0
 30
0.0
  0
ENDBLK
  5
BB
  8
0
  0
BLOCK
  8
0
  2
NRE-080
 70
     0
 10
0.0
 20
0.0
 30
0.0
  3
NRE-080
  1

  0
LINE
  5
A4
  8
0
 10
0.0
 20
200.0
 30
0.0
 11
0.0
 21
-200.0
 31
0.0
  0
LINE
  5
A5
  8
0
 10
0.0
 20
-200.0
 30
0.0
 11
1000.0
 21
-200.0
 31
0.0
  0
LINE
  5
A6
  8
0
 10
1000.0
 20
-200.0
 30
0.0
 11
1000.0
 21
200.0
 31
0.0
  0
LINE
  5
A7
  8
0
 10
1000.0
 20
200.0
 30
0.0
 11
0.0
 21
200.0
 31
0.0
  0
POLYLINE
  5
A8
  8
0
 66
     1
 10
0.0
 20
0.0
 30
0.0
 40
9.0
 41
9.0
  0
VERTEX
  5
CC
  8
0
 10
0.0
 20
0.0
 30
0.0
  0
VERTEX
  5
CD
  8
0
 10
1000.0
 20
0.0
 30
0.0
  0
SEQEND
  5
CB
  8
0
  0
DIMENSION
  5
A9
  8
INFO
  2
*D1
 10
1000.0
 20
296.5076578571157
 30
0.0
 11
500.0
 21
296.5076578571157
 31
0.0
 70
    32
  3
STANDARD
 13
0.0
 23
200.0
 33
0.0
 14
1000.0
 24
200.0
 34
0.0
1001
ACAD
1000
DSTYLE
1002
{
1070
   140
1040
50.0
1002
}
  0
DIMENSION
  5
AA
  8
INFO
  2
*D2
 10
-73.7179434098332
 20
-200.0
 30
0.0
 11
-73.71794340983318
 21
0.0
 31
0.0
 70
    32
 53
90.0
  3
STANDARD
 13
0.0
 23
200.0
 33
0.0
 14
0.0
 24
-200.0
 34
0.0
 50
90.0
1001
ACAD
1000
DSTYLE
1002
{
1070
   140
1040
50.0
1002
}
  0
TEXT
  5
AB
  8
0
 62
     2
 10
375.2312358669726
 20
-162.1545912112279
 30
0.0
 40
25.0
  1
FJ 31.03.2008
  0
TEXT
  5
AC
  8
0
 10
336.4960286998642
 20
-126.6473179747118
 30
0.0
 40
50.0
  1
NRE-080
  0
TEXT
  5
AD
  8
0
 10
376.8452028322688
 20
-66.93054025875267
 30
0.0
 40
50.0
  1
JeBec
  0
TEXT
  5
AE
  8
INFO
 10
167.9176339715666
 20
40.52191042363802
 30
0.0
 40
50.0
  1
Landschaft pur
  0
TEXT
  5
AF
  8
0
 10
440.0040666834441
 20
120.9110837248745
 30
0.0
 40
50.0
  1
1000
  0
ENDBLK
  5
BD
  8
0
  0
ENDSEC
  0
SECTION
  2
ENTITIES
  0
INSERT
  5
B2
  8
0
  2
NRE-080
 10
0.0
 20
0.0
 30
0.0
  0
ENDSEC
  0
EOF
