  0
SECTION
  2
HEADER
  9
$ACADVER
  1
AC1009
  9
$DWGCODEPAGE
  3
ansi_1252
  9
$INSBASE
 10
0.0
 20
0.0
 30
0.0
  9
$EXTMIN
 10
-0.0002434793641049
 20
-381.8774538243383
 30
0.0
  9
$EXTMAX
 10
309.5180783957578
 20
1599.101759999561
 30
0.0
  9
$LIMMIN
 10
0.0
 20
0.0
  9
$LIMMAX
 10
420.0
 20
297.0
  9
$ORTHOMODE
 70
     0
  9
$REGENMODE
 70
     1
  9
$FILLMODE
 70
     1
  9
$QTEXTMODE
 70
     0
  9
$MIRRTEXT
 70
     0
  9
$DRAGMODE
 70
     2
  9
$LTSCALE
 40
1.0
  9
$OSMODE
 70
    37
  9
$ATTMODE
 70
     1
  9
$TEXTSIZE
 40
50.0
  9
$TRACEWID
 40
1.0
  9
$TEXTSTYLE
  7
STANDARD
  9
$CLAYER
  8
0
  9
$CELTYPE
  6
BYLAYER
  9
$CECOLOR
 62
   256
  9
$DIMSCALE
 40
1.0
  9
$DIMASZ
 40
2.5
  9
$DIMEXO
 40
0.625
  9
$DIMDLI
 40
3.75
  9
$DIMRND
 40
0.0
  9
$DIMDLE
 40
0.0
  9
$DIMEXE
 40
1.25
  9
$DIMTP
 40
0.0
  9
$DIMTM
 40
0.0
  9
$DIMTXT
 40
50.0
  9
$DIMCEN
 40
2.5
  9
$DIMTSZ
 40
0.0
  9
$DIMTOL
 70
     0
  9
$DIMLIM
 70
     0
  9
$DIMTIH
 70
     0
  9
$DIMTOH
 70
     0
  9
$DIMSE1
 70
     0
  9
$DIMSE2
 70
     0
  9
$DIMTAD
 70
     1
  9
$DIMZIN
 70
     8
  9
$DIMBLK
  1

  9
$DIMASO
 70
     1
  9
$DIMSHO
 70
     1
  9
$DIMPOST
  1

  9
$DIMAPOST
  1

  9
$DIMALT
 70
     0
  9
$DIMALTD
 70
     3
  9
$DIMALTF
 40
0.03937007874016
  9
$DIMLFAC
 40
1.0
  9
$DIMTOFL
 70
     1
  9
$DIMTVP
 40
0.0
  9
$DIMTIX
 70
     0
  9
$DIMSOXD
 70
     0
  9
$DIMSAH
 70
     0
  9
$DIMBLK1
  1

  9
$DIMBLK2
  1

  9
$DIMSTYLE
  2
ISO-25
  9
$DIMCLRD
 70
     0
  9
$DIMCLRE
 70
     0
  9
$DIMCLRT
 70
     0
  9
$DIMTFAC
 40
1.0
  9
$DIMGAP
 40
0.625
  9
$LUNITS
 70
     2
  9
$LUPREC
 70
     4
  9
$SKETCHINC
 40
1.0
  9
$FILLETRAD
 40
0.0
  9
$AUNITS
 70
     0
  9
$AUPREC
 70
     0
  9
$MENU
  1
.
  9
$ELEVATION
 40
0.0
  9
$PELEVATION
 40
0.0
  9
$THICKNESS
 40
0.0
  9
$LIMCHECK
 70
     0
  9
$CHAMFERA
 40
0.0
  9
$CHAMFERB
 40
0.0
  9
$SKPOLY
 70
     0
  9
$TDCREATE
 40
2453353.800459155
  9
$TDUPDATE
 40
2454566.141497778
  9
$TDINDWG
 40
4895786.051922963
  9
$TDUSRTIMER
 40
9763088.046677036
  9
$USRTIMER
 70
     1
  9
$ANGBASE
 50
0.0
  9
$ANGDIR
 70
     0
  9
$PDMODE
 70
     0
  9
$PDSIZE
 40
0.0
  9
$PLINEWID
 40
9.0
  9
$COORDS
 70
     1
  9
$SPLFRAME
 70
     0
  9
$SPLINETYPE
 70
     6
  9
$SPLINESEGS
 70
     8
  9
$ATTDIA
 70
     0
  9
$ATTREQ
 70
     1
  9
$HANDLING
 70
     1
  9
$HANDSEED
  5
E6
  9
$SURFTAB1
 70
     6
  9
$SURFTAB2
 70
     6
  9
$SURFTYPE
 70
     6
  9
$SURFU
 70
     6
  9
$SURFV
 70
     6
  9
$UCSNAME
  2

  9
$UCSORG
 10
0.0
 20
0.0
 30
0.0
  9
$UCSXDIR
 10
1.0
 20
0.0
 30
0.0
  9
$UCSYDIR
 10
0.0
 20
1.0
 30
0.0
  9
$PUCSNAME
  2

  9
$PUCSORG
 10
0.0
 20
0.0
 30
0.0
  9
$PUCSXDIR
 10
1.0
 20
0.0
 30
0.0
  9
$PUCSYDIR
 10
0.0
 20
1.0
 30
0.0
  9
$USERI1
 70
     0
  9
$USERI2
 70
     0
  9
$USERI3
 70
     0
  9
$USERI4
 70
     0
  9
$USERI5
 70
     0
  9
$USERR1
 40
0.0
  9
$USERR2
 40
0.0
  9
$USERR3
 40
0.0
  9
$USERR4
 40
0.0
  9
$USERR5
 40
0.0
  9
$WORLDVIEW
 70
     1
  9
$SHADEDGE
 70
     3
  9
$SHADEDIF
 70
    70
  9
$TILEMODE
 70
     1
  9
$MAXACTVP
 70
    64
  9
$PLIMCHECK
 70
     0
  9
$PEXTMIN
 10
0.0
 20
0.0
 30
0.0
  9
$PEXTMAX
 10
0.0
 20
0.0
 30
0.0
  9
$PLIMMIN
 10
0.0
 20
0.0
  9
$PLIMMAX
 10
12.0
 20
9.0
  9
$UNITMODE
 70
     0
  9
$VISRETAIN
 70
     1
  9
$PLINEGEN
 70
     0
  9
$PSLTSCALE
 70
     1
  0
ENDSEC
  0
SECTION
  2
TABLES
  0
TABLE
  2
VPORT
 70
     1
  0
VPORT
  2
*ACTIVE
 70
     0
 10
0.0
 20
0.0
 11
1.0
 21
1.0
 12
244.3057718138554
 22
4.634315089338021
 13
0.0
 23
0.0
 14
0.5
 24
0.5
 15
0.5
 25
0.5
 16
0.0
 26
0.0
 36
1.0
 17
0.0
 27
0.0
 37
0.0
 40
1057.873903908984
 41
1.333333333333333
 42
50.0
 43
0.0
 44
0.0
 50
0.0
 51
0.0
 71
    16
 72
   100
 73
     0
 74
     1
 75
     0
 76
     0
 77
     0
 78
     0
  0
ENDTAB
  0
TABLE
  2
LTYPE
 70
     1
  0
LTYPE
  2
CONTINUOUS
 70
     0
  3
CONTINUOUS
 72
    65
 73
     0
 40
0.0
  0
ENDTAB
  0
TABLE
  2
LAYER
 70
     3
  0
LAYER
  2
0
 70
     0
 62
     7
  6
CONTINUOUS
  0
LAYER
  2
INFO
 70
     0
 62
     3
  6
CONTINUOUS
  0
LAYER
  2
DEFPOINTS
 70
     0
 62
     7
  6
CONTINUOUS
  0
ENDTAB
  0
TABLE
  2
STYLE
 70
     1
  0
STYLE
  2
STANDARD
 70
     0
 40
0.0
 41
1.0
 50
0.0
 71
     0
 42
2.5
  3
txt
  4

  0
ENDTAB
  0
TABLE
  2
VIEW
 70
     0
  0
ENDTAB
  0
TABLE
  2
UCS
 70
     0
  0
ENDTAB
  0
TABLE
  2
APPID
 70
     1
  0
APPID
  2
ACAD
 70
     0
  0
ENDTAB
  0
TABLE
  2
DIMSTYLE
 70
     2
  0
DIMSTYLE
  2
STANDARD
 70
     0
  3

  4

  5

  6

  7

 40
1.0
 41
0.18
 42
0.0625
 43
0.38
 44
0.18
 45
0.0
 46
0.0
 47
0.0
 48
0.0
140
0.18
141
0.09
142
0.0
143
25.4
144
1.0
145
0.0
146
1.0
147
0.09
 71
     0
 72
     0
 73
     1
 74
     1
 75
     0
 76
     0
 77
     0
 78
     0
170
     0
171
     2
172
     0
173
     0
174
     0
175
     0
176
     0
177
     0
178
     0
  0
DIMSTYLE
  2
ISO-25
 70
     0
  3

  4

  5

  6

  7

 40
1.0
 41
2.5
 42
0.625
 43
3.75
 44
1.25
 45
0.0
 46
0.0
 47
0.0
 48
0.0
140
2.5
141
2.5
142
0.0
143
0.03937007874016
144
1.0
145
0.0
146
1.0
147
0.625
 71
     0
 72
     0
 73
     0
 74
     0
 75
     0
 76
     0
 77
     1
 78
     8
170
     0
171
     3
172
     1
173
     0
174
     0
175
     0
176
     0
177
     0
178
     0
  0
ENDTAB
  0
ENDSEC
  0
SECTION
  2
BLOCKS
  0
BLOCK
  8
0
  2
$MODEL_SPACE
 70
     0
 10
0.0
 20
0.0
 30
0.0
  3
$MODEL_SPACE
  1

  0
ENDBLK
  5
21
  8
0
  0
BLOCK
 67
     1
  8
0
  2
$PAPER_SPACE
 70
     0
 10
0.0
 20
0.0
 30
0.0
  3
$PAPER_SPACE
  1

  0
ENDBLK
  5
76
 67
     1
  8
0
  0
BLOCK
  8
0
  2
*D1
 70
     1
 10
0.0
 20
0.0
 30
0.0
  3
*D1
  1

  0
LINE
  5
46
  8
INFO
 62
     0
 10
0.0048986157748666
 20
-200.0623077327747
 30
0.0
 11
8.239818342680399
 21
-304.8060152093869
 31
0.0
  0
LINE
  5
47
  8
INFO
 62
     0
 10
281.1048986157749
 20
-177.9623077327745
 30
0.0
 11
289.3398183426804
 21
-282.7060152093868
 31
0.0
  0
LINE
  5
48
  8
INFO
 62
     0
 10
8.405156599639152
 20
-304.6124609255649
 30
0.0
 11
289.1462640588584
 21
-282.540676952428
 31
0.0
  0
LINE
  5
49
  8
INFO
 62
     0
 10
289.3257103292488
 20
-282.5265689389964
 30
0.0
 11
289.5051565996391
 21
-282.5124609255648
 31
0.0
  0
LINE
  5
4A
  8
INFO
 62
     0
 10
289.5051565996391
 20
-282.5124609255648
 30
0.0
 11
289.6851565996391
 21
-282.5124609255648
 31
0.0
  0
SOLID
  5
4B
  8
INFO
 62
     0
 10
8.402805264067217
 20
-304.5825532138332
 30
0.0
 11
8.407507935211088
 21
-304.6423686372966
 31
0.0
 12
8.225710329248784
 22
-304.6265689389965
 32
0.0
 13
8.225710329248784
 23
-304.6265689389965
 33
0.0
  0
SOLID
  5
4C
  8
INFO
 62
     0
 10
289.1486153944303
 20
-282.5705846641598
 30
0.0
 11
289.1439127232865
 21
-282.5107692406963
 31
0.0
 12
289.3257103292488
 22
-282.5265689389964
 32
0.0
 13
289.3257103292488
 23
-282.5265689389964
 33
0.0
  0
TEXT
  5
4D
  8
INFO
 62
     0
 10
292.7624014476935
 20
-320.5050609226823
 30
0.0
 40
50.0
  1
281.9674
 50
4.495330721172725
  0
POINT
  5
D5
  8
DEFPOINTS
 62
     0
 10
0.0
 20
-200.0000000000002
 30
0.0
  0
POINT
  5
D6
  8
DEFPOINTS
 62
     0
 10
281.1
 20
-177.9000000000001
 30
0.0
  0
POINT
  5
D7
  8
DEFPOINTS
 62
     0
 10
289.3257103292488
 20
-282.5265689389964
 30
0.0
  0
ENDBLK
  5
D0
  8
0
  0
BLOCK
  8
0
  2
*D2
 70
     1
 10
0.0
 20
0.0
 30
0.0
  3
*D2
  1

  0
LINE
  5
52
  8
INFO
 62
     0
 10
0.0
 20
-200.0625000000002
 30
0.0
 11
0.0
 21
-380.8074538243383
 31
0.0
  0
LINE
  5
53
  8
INFO
 62
     0
 10
281.1097653119047
 20
-177.9617323957369
 30
0.0
 11
309.3508962559495
 21
-356.4908657715664
 31
0.0
  0
ARC
  5
54
  8
INFO
 62
     0
 10
0.0
 20
1599.101759999561
 30
0.0
 40
1979.729213823899
 50
270.0052094196643
 51
273.5272235701708
  0
ARC
  5
55
  8
INFO
 62
     0
 10
0.0
 20
1599.101759999561
 30
0.0
 40
1979.729213823899
 50
275.4630706531265
 51
278.9837993317873
  0
SOLID
  5
56
  8
INFO
 62
     0
 10
0.1799986359907432
 20
-380.597445641432
 30
0.0
 11
0.1800013636365269
 21
-380.65744564137
 31
0.0
 12
-0.0000000000003637
 22
-380.6274538243383
 32
0.0
 13
-0.0000000000003637
 23
-380.6274538243383
 33
0.0
  0
SOLID
  5
57
  8
INFO
 62
     0
 10
309.1496675822189
 20
-356.3708242506771
 30
0.0
 11
309.1402955769459
 21
-356.3115607246501
 31
0.0
 12
309.3227721576636
 22
-356.3130764718444
 32
0.0
 13
309.3227721576636
 23
-356.3130764718444
 33
0.0
  0
TEXT
  5
58
  8
INFO
 62
     0
 10
121.8884593849484
 20
-399.5394988130579
 30
0.0
 40
50.0
  1
9\U+00B0
  0
POINT
  5
9F
  8
DEFPOINTS
 62
     0
 10
0.0
 20
1599.101759999561
 30
0.0
  0
POINT
  5
A0
  8
DEFPOINTS
 62
     0
 10
0.0
 20
-200.0000000000002
 30
0.0
  0
POINT
  5
D8
  8
DEFPOINTS
 62
     0
 10
281.1
 20
-177.9000000000001
 30
0.0
  0
POINT
  5
D9
  8
DEFPOINTS
 62
     0
 10
125.2310035819173
 20
-376.662637849955
 30
0.0
  0
ENDBLK
  5
D2
  8
0
  0
BLOCK
  8
0
  2
NRE-029
 70
     0
 10
0.0
 20
0.0
 30
0.0
  3
NRE-029
  1

  0
LINE
  5
BD
  8
0
 62
     0
 10
0.0
 20
200.0
 30
0.0
 11
218.6
 21
217.1999999999998
 31
0.0
  0
LINE
  5
BE
  8
0
 62
     0
 10
218.6
 20
217.1999999999998
 30
0.0
 11
281.1
 21
-177.9000000000001
 31
0.0
  0
LINE
  5
BF
  8
0
 62
     0
 10
281.1
 20
-177.9000000000001
 30
0.0
 11
0.0
 21
-200.0000000000002
 31
0.0
  0
LINE
  5
C0
  8
0
 62
     0
 10
0.0
 20
-200.0000000000002
 30
0.0
 11
0.0
 21
200.0
 31
0.0
  0
POLYLINE
  5
C1
  8
0
 62
     0
 66
     1
 10
0.0
 20
0.0
 30
0.0
 40
9.0
 41
9.0
  0
VERTEX
  5
E4
  8
0
 62
     0
 10
0.0
 20
0.0
 30
0.0
 42
0.0392630115926122
  0
VERTEX
  5
E5
  8
0
 62
     0
 10
250.123066
 20
19.68511199999966
 30
0.0
 42
25.46926380421021
  0
SEQEND
  5
E3
  8
0
 62
     0
  0
TEXT
  5
C2
  8
0
 10
34.03216785682287
 20
-107.4607346790692
 30
0.0
 40
30.0
  1
NRE-029
  0
TEXT
  5
C3
  8
0
 10
68.92883392181625
 20
-60.53073548821612
 30
0.0
 40
30.0
  1
HeRei
  0
TEXT
  5
C4
  8
0
 62
     2
 10
19.19310348682109
 20
36.40819991523495
 30
0.0
 40
25.0
  1
FJ 03.2008
  0
DIMENSION
  5
C5
  8
INFO
  2
*D1
 10
289.3257103292488
 20
-282.5265689389964
 30
0.0
 11
457.0399861799357
 21
-282.5124609255648
 31
0.0
 70
    33
 53
4.495330721172688
  3
STANDARD
 13
0.0
 23
-200.0000000000002
 33
0.0
 14
281.1
 24
-177.9000000000001
 34
0.0
1001
ACAD
1000
DSTYLE
1002
{
1070
   140
1040
50.0
1002
}
  0
DIMENSION
  5
C6
  8
INFO
  2
*D2
 10
125.2310035819173
 20
-376.662637849955
 30
0.0
 11
155.1384593849484
 21
-374.5394988130579
 31
0.0
 70
    37
  3
STANDARD
 13
281.1
 23
-177.9000000000001
 33
0.0
 14
0.0
 24
-200.0000000000002
 34
0.0
 15
0.0
 25
1599.101759999561
 35
0.0
1001
ACAD
1000
DSTYLE
1002
{
1070
   140
1040
50.0
1002
}
  0
ENDBLK
  5
D4
  8
0
  0
ENDSEC
  0
SECTION
  2
ENTITIES
  0
INSERT
  5
C9
  8
0
  2
NRE-029
 10
0.0
 20
0.0
 30
0.0
  0
ENDSEC
  0
EOF
