  0
SECTION
  2
HEADER
  9
$ACADVER
  1
AC1009
  9
$DWGCODEPAGE
  3
ansi_1252
  9
$INSBASE
 10
0.0
 20
0.0
 30
0.0
  9
$EXTMIN
 10
-228.3227853603166
 20
-200.0
 30
0.0
  9
$EXTMAX
 10
1079.151575215055
 20
200.0
 30
0.0
  9
$LIMMIN
 10
0.0
 20
0.0
  9
$LIMMAX
 10
420.0
 20
297.0
  9
$ORTHOMODE
 70
     0
  9
$REGENMODE
 70
     1
  9
$FILLMODE
 70
     1
  9
$QTEXTMODE
 70
     0
  9
$MIRRTEXT
 70
     0
  9
$DRAGMODE
 70
     2
  9
$LTSCALE
 40
1.0
  9
$OSMODE
 70
    37
  9
$ATTMODE
 70
     1
  9
$TEXTSIZE
 40
50.0
  9
$TRACEWID
 40
1.0
  9
$TEXTSTYLE
  7
STANDARD
  9
$CLAYER
  8
0
  9
$CELTYPE
  6
BYLAYER
  9
$CECOLOR
 62
   256
  9
$DIMSCALE
 40
1.0
  9
$DIMASZ
 40
2.5
  9
$DIMEXO
 40
0.625
  9
$DIMDLI
 40
3.75
  9
$DIMRND
 40
0.0
  9
$DIMDLE
 40
0.0
  9
$DIMEXE
 40
1.25
  9
$DIMTP
 40
0.0
  9
$DIMTM
 40
0.0
  9
$DIMTXT
 40
50.0
  9
$DIMCEN
 40
2.5
  9
$DIMTSZ
 40
0.0
  9
$DIMTOL
 70
     0
  9
$DIMLIM
 70
     0
  9
$DIMTIH
 70
     0
  9
$DIMTOH
 70
     0
  9
$DIMSE1
 70
     0
  9
$DIMSE2
 70
     0
  9
$DIMTAD
 70
     1
  9
$DIMZIN
 70
     8
  9
$DIMBLK
  1

  9
$DIMASO
 70
     1
  9
$DIMSHO
 70
     1
  9
$DIMPOST
  1

  9
$DIMAPOST
  1

  9
$DIMALT
 70
     0
  9
$DIMALTD
 70
     3
  9
$DIMALTF
 40
0.03937007874016
  9
$DIMLFAC
 40
1.0
  9
$DIMTOFL
 70
     1
  9
$DIMTVP
 40
0.0
  9
$DIMTIX
 70
     0
  9
$DIMSOXD
 70
     0
  9
$DIMSAH
 70
     0
  9
$DIMBLK1
  1

  9
$DIMBLK2
  1

  9
$DIMSTYLE
  2
ISO-25
  9
$DIMCLRD
 70
     0
  9
$DIMCLRE
 70
     0
  9
$DIMCLRT
 70
     0
  9
$DIMTFAC
 40
1.0
  9
$DIMGAP
 40
0.625
  9
$LUNITS
 70
     2
  9
$LUPREC
 70
     4
  9
$SKETCHINC
 40
1.0
  9
$FILLETRAD
 40
0.0
  9
$AUNITS
 70
     0
  9
$AUPREC
 70
     0
  9
$MENU
  1
.
  9
$ELEVATION
 40
0.0
  9
$PELEVATION
 40
0.0
  9
$THICKNESS
 40
0.0
  9
$LIMCHECK
 70
     0
  9
$CHAMFERA
 40
0.0
  9
$CHAMFERB
 40
0.0
  9
$SKPOLY
 70
     0
  9
$TDCREATE
 40
2453353.800459155
  9
$TDUPDATE
 40
2454566.141497778
  9
$TDINDWG
 40
4895786.051922963
  9
$TDUSRTIMER
 40
9763088.046677036
  9
$USRTIMER
 70
     1
  9
$ANGBASE
 50
0.0
  9
$ANGDIR
 70
     0
  9
$PDMODE
 70
     0
  9
$PDSIZE
 40
0.0
  9
$PLINEWID
 40
9.0
  9
$COORDS
 70
     1
  9
$SPLFRAME
 70
     0
  9
$SPLINETYPE
 70
     6
  9
$SPLINESEGS
 70
     8
  9
$ATTDIA
 70
     0
  9
$ATTREQ
 70
     1
  9
$HANDLING
 70
     1
  9
$HANDSEED
  5
DC
  9
$SURFTAB1
 70
     6
  9
$SURFTAB2
 70
     6
  9
$SURFTYPE
 70
     6
  9
$SURFU
 70
     6
  9
$SURFV
 70
     6
  9
$UCSNAME
  2

  9
$UCSORG
 10
0.0
 20
0.0
 30
0.0
  9
$UCSXDIR
 10
1.0
 20
0.0
 30
0.0
  9
$UCSYDIR
 10
0.0
 20
1.0
 30
0.0
  9
$PUCSNAME
  2

  9
$PUCSORG
 10
0.0
 20
0.0
 30
0.0
  9
$PUCSXDIR
 10
1.0
 20
0.0
 30
0.0
  9
$PUCSYDIR
 10
0.0
 20
1.0
 30
0.0
  9
$USERI1
 70
     0
  9
$USERI2
 70
     0
  9
$USERI3
 70
     0
  9
$USERI4
 70
     0
  9
$USERI5
 70
     0
  9
$USERR1
 40
0.0
  9
$USERR2
 40
0.0
  9
$USERR3
 40
0.0
  9
$USERR4
 40
0.0
  9
$USERR5
 40
0.0
  9
$WORLDVIEW
 70
     1
  9
$SHADEDGE
 70
     3
  9
$SHADEDIF
 70
    70
  9
$TILEMODE
 70
     1
  9
$MAXACTVP
 70
    64
  9
$PLIMCHECK
 70
     0
  9
$PEXTMIN
 10
0.0
 20
0.0
 30
0.0
  9
$PEXTMAX
 10
0.0
 20
0.0
 30
0.0
  9
$PLIMMIN
 10
0.0
 20
0.0
  9
$PLIMMAX
 10
12.0
 20
9.0
  9
$UNITMODE
 70
     0
  9
$VISRETAIN
 70
     1
  9
$PLINEGEN
 70
     0
  9
$PSLTSCALE
 70
     1
  0
ENDSEC
  0
SECTION
  2
TABLES
  0
TABLE
  2
VPORT
 70
     1
  0
VPORT
  2
*ACTIVE
 70
     0
 10
0.0
 20
0.0
 11
1.0
 21
1.0
 12
440.9689925236518
 22
-368.9514925414935
 13
0.0
 23
0.0
 14
0.5
 24
0.5
 15
0.5
 25
0.5
 16
0.0
 26
0.0
 36
1.0
 17
0.0
 27
0.0
 37
0.0
 40
3136.083921198158
 41
1.333333333333333
 42
50.0
 43
0.0
 44
0.0
 50
0.0
 51
0.0
 71
    16
 72
   100
 73
     0
 74
     1
 75
     0
 76
     0
 77
     0
 78
     0
  0
ENDTAB
  0
TABLE
  2
LTYPE
 70
     1
  0
LTYPE
  2
CONTINUOUS
 70
     0
  3
CONTINUOUS
 72
    65
 73
     0
 40
0.0
  0
ENDTAB
  0
TABLE
  2
LAYER
 70
     3
  0
LAYER
  2
0
 70
     0
 62
     7
  6
CONTINUOUS
  0
LAYER
  2
INFO
 70
     0
 62
     3
  6
CONTINUOUS
  0
LAYER
  2
DEFPOINTS
 70
     0
 62
     7
  6
CONTINUOUS
  0
ENDTAB
  0
TABLE
  2
STYLE
 70
     1
  0
STYLE
  2
STANDARD
 70
     0
 40
0.0
 41
1.0
 50
0.0
 71
     0
 42
2.5
  3
txt
  4

  0
ENDTAB
  0
TABLE
  2
VIEW
 70
     0
  0
ENDTAB
  0
TABLE
  2
UCS
 70
     0
  0
ENDTAB
  0
TABLE
  2
APPID
 70
     1
  0
APPID
  2
ACAD
 70
     0
  0
ENDTAB
  0
TABLE
  2
DIMSTYLE
 70
     2
  0
DIMSTYLE
  2
STANDARD
 70
     0
  3

  4

  5

  6

  7

 40
1.0
 41
0.18
 42
0.0625
 43
0.38
 44
0.18
 45
0.0
 46
0.0
 47
0.0
 48
0.0
140
0.18
141
0.09
142
0.0
143
25.4
144
1.0
145
0.0
146
1.0
147
0.09
 71
     0
 72
     0
 73
     1
 74
     1
 75
     0
 76
     0
 77
     0
 78
     0
170
     0
171
     2
172
     0
173
     0
174
     0
175
     0
176
     0
177
     0
178
     0
  0
DIMSTYLE
  2
ISO-25
 70
     0
  3

  4

  5

  6

  7

 40
1.0
 41
2.5
 42
0.625
 43
3.75
 44
1.25
 45
0.0
 46
0.0
 47
0.0
 48
0.0
140
2.5
141
2.5
142
0.0
143
0.03937007874016
144
1.0
145
0.0
146
1.0
147
0.625
 71
     0
 72
     0
 73
     0
 74
     0
 75
     0
 76
     0
 77
     1
 78
     8
170
     0
171
     3
172
     1
173
     0
174
     0
175
     0
176
     0
177
     0
178
     0
  0
ENDTAB
  0
ENDSEC
  0
SECTION
  2
BLOCKS
  0
BLOCK
  8
0
  2
$MODEL_SPACE
 70
     0
 10
0.0
 20
0.0
 30
0.0
  3
$MODEL_SPACE
  1

  0
ENDBLK
  5
21
  8
0
  0
BLOCK
 67
     1
  8
0
  2
$PAPER_SPACE
 70
     0
 10
0.0
 20
0.0
 30
0.0
  3
$PAPER_SPACE
  1

  0
ENDBLK
  5
76
 67
     1
  8
0
  0
BLOCK
  8
0
  2
*D1
 70
     1
 10
0.0
 20
0.0
 30
0.0
  3
*D1
  1

  0
LINE
  5
49
  8
INFO
 62
     0
 10
-0.0625
 20
150.0
 30
0.0
 11
-177.8777853603166
 21
150.0
 31
0.0
  0
LINE
  5
4A
  8
INFO
 62
     0
 10
-0.0625
 20
-150.0
 30
0.0
 11
-177.8777853603166
 21
-150.0
 31
0.0
  0
LINE
  5
4B
  8
INFO
 62
     0
 10
-177.6977853603166
 20
149.82
 30
0.0
 11
-177.6977853603166
 21
149.59
 31
0.0
  0
LINE
  5
4C
  8
INFO
 62
     0
 10
-177.6977853603166
 20
-149.82
 30
0.0
 11
-177.6977853603166
 21
-149.59
 31
0.0
  0
SOLID
  5
4D
  8
INFO
 62
     0
 10
-177.6677853603166
 20
149.82
 30
0.0
 11
-177.7277853603166
 21
149.82
 31
0.0
 12
-177.6977853603166
 22
150.0
 32
0.0
 13
-177.6977853603166
 23
150.0
 33
0.0
  0
SOLID
  5
4E
  8
INFO
 62
     0
 10
-177.7277853603166
 20
-149.82
 30
0.0
 11
-177.6677853603166
 21
-149.82
 31
0.0
 12
-177.6977853603166
 22
-150.0
 32
0.0
 13
-177.6977853603166
 23
-150.0
 33
0.0
  0
TEXT
  5
4F
  8
INFO
 62
     0
 10
-202.6977853603166
 20
149.5
 30
0.0
 40
50.0
  1
300.0000
 50
270.0
  0
POINT
  5
50
  8
DEFPOINTS
 62
     0
 10
0.0
 20
150.0
 30
0.0
  0
POINT
  5
C8
  8
DEFPOINTS
 62
     0
 10
0.0
 20
-150.0
 30
0.0
  0
POINT
  5
C9
  8
DEFPOINTS
 62
     0
 10
-177.6977853603166
 20
-150.0
 30
0.0
  0
ENDBLK
  5
C1
  8
0
  0
BLOCK
  8
0
  2
*D2
 70
     1
 10
0.0
 20
0.0
 30
0.0
  3
*D2
  1

  0
LINE
  5
55
  8
INFO
 62
     0
 10
-0.0624994574723419
 20
0.0002604144061348
 30
0.0
 11
-89.33984320370701
 21
0.3722493466821016
 31
0.0
  0
LINE
  5
56
  8
INFO
 62
     0
 10
-0.687499457472342
 20
-149.9997395855939
 30
0.0
 11
-89.96484320370701
 21
-149.6277506533179
 31
0.0
  0
LINE
  5
57
  8
INFO
 62
     0
 10
-89.16059475967633
 20
0.1915009156720996
 30
0.0
 11
-89.784094772697
 21
-149.4485022092872
 31
0.0
  0
LINE
  5
58
  8
INFO
 62
     0
 10
-89.78484476618667
 20
-149.6285006468076
 30
0.0
 11
-89.78559475967634
 21
-149.8084990843279
 31
0.0
  0
LINE
  5
A3
  8
INFO
 62
     0
 10
-89.78559475967634
 20
-149.8084990843279
 30
0.0
 11
-89.96559475967635
 21
-149.8084990843279
 31
0.0
  0
SOLID
  5
A4
  8
INFO
 62
     0
 10
-89.1305950200896
 20
0.1913759167571549
 30
0.0
 11
-89.19059449926306
 21
0.1916259145870443
 31
0.0
 12
-89.15984476618667
 22
0.3714993531924443
 32
0.0
 13
-89.15984476618667
 23
0.3714993531924443
 33
0.0
  0
SOLID
  5
5B
  8
INFO
 62
     0
 10
-89.81409451228373
 20
-149.4483772103723
 30
0.0
 11
-89.75409503311028
 21
-149.4486272082022
 31
0.0
 12
-89.78484476618667
 22
-149.6285006468076
 32
0.0
 13
-89.78484476618667
 23
-149.6285006468076
 33
0.0
  0
TEXT
  5
5C
  8
INFO
 62
     0
 10
-139.4483091477004
 20
-3.95559849637262
 30
0.0
 40
50.0
  1
150.0013
 50
269.7612689669011
  0
POINT
  5
CA
  8
DEFPOINTS
 62
     0
 10
0.0
 20
0.0
 30
0.0
  0
POINT
  5
CB
  8
DEFPOINTS
 62
     0
 10
-0.625
 20
-150.0
 30
0.0
  0
POINT
  5
CC
  8
DEFPOINTS
 62
     0
 10
-89.78484476618667
 20
-149.6285006468076
 30
0.0
  0
ENDBLK
  5
C3
  8
0
  0
BLOCK
  8
0
  2
*D3
 70
     1
 10
0.0
 20
0.0
 30
0.0
  3
*D3
  1

  0
LINE
  5
61
  8
INFO
 62
     0
 10
1000.0625
 20
0.0
 30
0.0
 11
1078.081575215055
 21
0.0
 31
0.0
  0
LINE
  5
62
  8
INFO
 62
     0
 10
1000.0625
 20
-150.0
 30
0.0
 11
1078.081575215055
 21
-150.0
 31
0.0
  0
LINE
  5
63
  8
INFO
 62
     0
 10
1077.901575215055
 20
-0.179999999999988
 30
0.0
 11
1077.901575215055
 21
-149.82
 31
0.0
  0
LINE
  5
64
  8
INFO
 62
     0
 10
1077.901575215055
 20
-150.0
 30
0.0
 11
1077.901575215055
 21
-150.18
 31
0.0
  0
LINE
  5
65
  8
INFO
 62
     0
 10
1077.901575215055
 20
-150.18
 30
0.0
 11
1077.721575215055
 21
-150.18
 31
0.0
  0
SOLID
  5
66
  8
INFO
 62
     0
 10
1077.931575215055
 20
-0.179999999999988
 30
0.0
 11
1077.871575215055
 21
-0.179999999999988
 31
0.0
 12
1077.901575215055
 22
0.000000000000012
 32
0.0
 13
1077.901575215055
 23
0.000000000000012
 33
0.0
  0
SOLID
  5
67
  8
INFO
 62
     0
 10
1077.871575215055
 20
-149.82
 30
0.0
 11
1077.931575215055
 21
-149.82
 31
0.0
 12
1077.901575215055
 22
-150.0
 32
0.0
 13
1077.901575215055
 23
-150.0
 33
0.0
  0
TEXT
  5
68
  8
INFO
 62
     0
 10
1027.631575215055
 20
-4.680000000000032
 30
0.0
 40
50.0
  1
150.0000
 50
270.0
  0
POINT
  5
CD
  8
DEFPOINTS
 62
     0
 10
1000.0
 20
0.0
 30
0.0
  0
POINT
  5
CE
  8
DEFPOINTS
 62
     0
 10
1000.0
 20
-150.0
 30
0.0
  0
POINT
  5
CF
  8
DEFPOINTS
 62
     0
 10
1077.901575215055
 20
-150.0
 30
0.0
  0
ENDBLK
  5
C5
  8
0
  0
BLOCK
  8
0
  2
NRE-021
 70
     0
 10
0.0
 20
0.0
 30
0.0
  3
NRE-021
  1

  0
LINE
  5
A9
  8
0
 62
     0
 10
0.0
 20
150.0
 30
0.0
 11
0.0
 21
-150.0
 31
0.0
  0
LINE
  5
AA
  8
0
 62
     0
 10
0.0
 20
-150.0
 30
0.0
 11
1000.0
 21
-150.0
 31
0.0
  0
LINE
  5
AB
  8
0
 62
     0
 10
1000.0
 20
-150.0
 30
0.0
 11
1000.0
 21
150.0
 31
0.0
  0
LINE
  5
AC
  8
0
 62
     0
 10
1000.0
 20
150.0
 30
0.0
 11
0.0
 21
150.0
 31
0.0
  0
POLYLINE
  5
AD
  8
0
 62
     0
 66
     1
 10
0.0
 20
0.0
 30
0.0
 40
9.0
 41
9.0
  0
VERTEX
  5
DA
  8
0
 62
     0
 10
0.0
 20
0.0
 30
0.0
  0
VERTEX
  5
DB
  8
0
 62
     0
 10
1000.0
 20
0.0
 30
0.0
  0
SEQEND
  5
D9
  8
0
 62
     0
  0
TEXT
  5
AE
  8
0
 62
     2
 10
397.1322550487897
 20
-124.3595663786646
 30
0.0
 40
25.0
  1
FJ 30.03.2008
  0
TEXT
  5
AF
  8
0
 10
468.5859689980615
 20
-77.35054404361745
 30
0.0
 40
50.0
  1
NRE-021
  0
TEXT
  5
B0
  8
0
 10
214.7372483888067
 20
-77.35054404361745
 30
0.0
 40
50.0
  1
HeRei
  0
TEXT
  5
B1
  8
0
 10
401.0944440741723
 20
72.07099123563967
 30
0.0
 40
50.0
  1
1000
  0
LINE
  5
B2
  8
0
 62
     0
 10
1000.0
 20
200.0
 30
0.0
 11
1000.0
 21
-200.0
 31
0.0
  0
LINE
  5
B3
  8
0
 62
     0
 10
0.0
 20
200.0
 30
0.0
 11
0.0
 21
-200.0
 31
0.0
  0
DIMENSION
  5
B4
  8
INFO
  2
*D1
 10
-177.6977853603166
 20
-150.0
 30
0.0
 11
-177.6977853603166
 21
0.0
 31
0.0
 70
    33
 53
270.0
  3
STANDARD
 13
0.0
 23
150.0
 33
0.0
 14
0.0
 24
-150.0
 34
0.0
1001
ACAD
1000
DSTYLE
1002
{
1070
   140
1040
50.0
1002
}
  0
DIMENSION
  5
B5
  8
INFO
  2
*D2
 10
-89.78484476618667
 20
-149.6285006468076
 30
0.0
 11
-115.0558125538699
 21
-149.8084990843279
 31
0.0
 70
    33
 53
269.7612689669011
  3
STANDARD
 13
0.0
 23
0.0
 33
0.0
 14
-0.625
 24
-150.0
 34
0.0
1001
ACAD
1000
DSTYLE
1002
{
1070
   140
1040
50.0
1002
}
  0
DIMENSION
  5
B6
  8
INFO
  2
*D3
 10
1077.901575215055
 20
-150.0
 30
0.0
 11
1052.631575215055
 21
-150.18
 31
0.0
 70
    33
 53
270.0
  3
STANDARD
 13
1000.0
 23
0.0
 33
0.0
 14
1000.0
 24
-150.0
 34
0.0
1001
ACAD
1000
DSTYLE
1002
{
1070
   140
1040
50.0
1002
}
  0
TEXT
  5
B7
  8
INFO
 10
93.44493370081011
 20
47.86000550788594
 30
0.0
 40
50.0
  1
Brücke
  0
ENDBLK
  5
C7
  8
0
  0
ENDSEC
  0
SECTION
  2
ENTITIES
  0
INSERT
  5
BA
  8
0
  2
NRE-021
 10
0.0
 20
0.0
 30
0.0
  0
ENDSEC
  0
EOF
