  0
SECTION
  2
HEADER
  9
$ACADVER
  1
AC1009
  9
$DWGCODEPAGE
  3
ansi_1252
  9
$INSBASE
 10
0.0
 20
0.0
 30
0.0
  9
$EXTMIN
 10
-668.8726603554518
 20
-267.8181320396386
 30
0.0
  9
$EXTMAX
 10
287.1576228841124
 20
243.0074879899368
 30
0.0
  9
$LIMMIN
 10
0.0
 20
0.0
  9
$LIMMAX
 10
420.0
 20
297.0
  9
$ORTHOMODE
 70
     0
  9
$REGENMODE
 70
     1
  9
$FILLMODE
 70
     1
  9
$QTEXTMODE
 70
     0
  9
$MIRRTEXT
 70
     0
  9
$DRAGMODE
 70
     2
  9
$LTSCALE
 40
1.0
  9
$OSMODE
 70
    37
  9
$ATTMODE
 70
     1
  9
$TEXTSIZE
 40
25.0
  9
$TRACEWID
 40
1.0
  9
$TEXTSTYLE
  7
STANDARD
  9
$CLAYER
  8
0
  9
$CELTYPE
  6
BYLAYER
  9
$CECOLOR
 62
   256
  9
$DIMSCALE
 40
1.0
  9
$DIMASZ
 40
2.5
  9
$DIMEXO
 40
0.625
  9
$DIMDLI
 40
3.75
  9
$DIMRND
 40
0.0
  9
$DIMDLE
 40
0.0
  9
$DIMEXE
 40
1.25
  9
$DIMTP
 40
0.0
  9
$DIMTM
 40
0.0
  9
$DIMTXT
 40
2.5
  9
$DIMCEN
 40
2.5
  9
$DIMTSZ
 40
0.0
  9
$DIMTOL
 70
     0
  9
$DIMLIM
 70
     0
  9
$DIMTIH
 70
     0
  9
$DIMTOH
 70
     0
  9
$DIMSE1
 70
     0
  9
$DIMSE2
 70
     0
  9
$DIMTAD
 70
     1
  9
$DIMZIN
 70
     8
  9
$DIMBLK
  1

  9
$DIMASO
 70
     1
  9
$DIMSHO
 70
     1
  9
$DIMPOST
  1

  9
$DIMAPOST
  1

  9
$DIMALT
 70
     0
  9
$DIMALTD
 70
     3
  9
$DIMALTF
 40
0.03937007874016
  9
$DIMLFAC
 40
1.0
  9
$DIMTOFL
 70
     1
  9
$DIMTVP
 40
0.0
  9
$DIMTIX
 70
     0
  9
$DIMSOXD
 70
     0
  9
$DIMSAH
 70
     0
  9
$DIMBLK1
  1

  9
$DIMBLK2
  1

  9
$DIMSTYLE
  2
ISO-25
  9
$DIMCLRD
 70
     0
  9
$DIMCLRE
 70
     0
  9
$DIMCLRT
 70
     0
  9
$DIMTFAC
 40
1.0
  9
$DIMGAP
 40
0.625
  9
$LUNITS
 70
     2
  9
$LUPREC
 70
     4
  9
$SKETCHINC
 40
1.0
  9
$FILLETRAD
 40
0.0
  9
$AUNITS
 70
     0
  9
$AUPREC
 70
     0
  9
$MENU
  1
.
  9
$ELEVATION
 40
0.0
  9
$PELEVATION
 40
0.0
  9
$THICKNESS
 40
0.0
  9
$LIMCHECK
 70
     0
  9
$CHAMFERA
 40
0.0
  9
$CHAMFERB
 40
0.0
  9
$SKPOLY
 70
     0
  9
$TDCREATE
 40
2453353.800459155
  9
$TDUPDATE
 40
2458239.164878518
  9
$TDINDWG
 40
4881704.058228148
  9
$TDUSRTIMER
 40
4881704.058228148
  9
$USRTIMER
 70
     1
  9
$ANGBASE
 50
0.0
  9
$ANGDIR
 70
     0
  9
$PDMODE
 70
     0
  9
$PDSIZE
 40
0.0
  9
$PLINEWID
 40
9.0
  9
$COORDS
 70
     1
  9
$SPLFRAME
 70
     0
  9
$SPLINETYPE
 70
     6
  9
$SPLINESEGS
 70
     8
  9
$ATTDIA
 70
     0
  9
$ATTREQ
 70
     1
  9
$HANDLING
 70
     1
  9
$HANDSEED
  5
160
  9
$SURFTAB1
 70
     6
  9
$SURFTAB2
 70
     6
  9
$SURFTYPE
 70
     6
  9
$SURFU
 70
     6
  9
$SURFV
 70
     6
  9
$UCSNAME
  2

  9
$UCSORG
 10
0.0
 20
0.0
 30
0.0
  9
$UCSXDIR
 10
1.0
 20
0.0
 30
0.0
  9
$UCSYDIR
 10
0.0
 20
1.0
 30
0.0
  9
$PUCSNAME
  2

  9
$PUCSORG
 10
0.0
 20
0.0
 30
0.0
  9
$PUCSXDIR
 10
1.0
 20
0.0
 30
0.0
  9
$PUCSYDIR
 10
0.0
 20
1.0
 30
0.0
  9
$USERI1
 70
     0
  9
$USERI2
 70
     0
  9
$USERI3
 70
     0
  9
$USERI4
 70
     0
  9
$USERI5
 70
     0
  9
$USERR1
 40
0.0
  9
$USERR2
 40
0.0
  9
$USERR3
 40
0.0
  9
$USERR4
 40
0.0
  9
$USERR5
 40
0.0
  9
$WORLDVIEW
 70
     1
  9
$SHADEDGE
 70
     3
  9
$SHADEDIF
 70
    70
  9
$TILEMODE
 70
     1
  9
$MAXACTVP
 70
    64
  9
$PLIMCHECK
 70
     0
  9
$PEXTMIN
 10
1.000000000000000E+20
 20
1.000000000000000E+20
 30
1.000000000000000E+20
  9
$PEXTMAX
 10
-1.000000000000000E+20
 20
-1.000000000000000E+20
 30
-1.000000000000000E+20
  9
$PLIMMIN
 10
0.0
 20
0.0
  9
$PLIMMAX
 10
420.0
 20
297.0
  9
$UNITMODE
 70
     0
  9
$VISRETAIN
 70
     1
  9
$PLINEGEN
 70
     0
  9
$PSLTSCALE
 70
     1
  0
ENDSEC
  0
SECTION
  2
TABLES
  0
TABLE
  2
VPORT
 70
     1
  0
VPORT
  2
*ACTIVE
 70
     0
 10
0.0
 20
0.0
 11
1.0
 21
1.0
 12
290.4985802319848
 22
6.136297354075531
 13
0.0
 23
0.0
 14
10.0
 24
10.0
 15
10.0
 25
10.0
 16
0.0
 26
0.0
 36
1.0
 17
0.0
 27
0.0
 37
0.0
 40
606.3560316322722
 41
1.664827586206897
 42
50.0
 43
0.0
 44
0.0
 50
0.0
 51
0.0
 71
    16
 72
  1000
 73
     1
 74
     1
 75
     0
 76
     0
 77
     0
 78
     0
  0
ENDTAB
  0
TABLE
  2
LTYPE
 70
     1
  0
LTYPE
  2
CONTINUOUS
 70
     0
  3
Solid line
 72
    65
 73
     0
 40
0.0
  0
ENDTAB
  0
TABLE
  2
LAYER
 70
     3
  0
LAYER
  2
0
 70
     0
 62
     7
  6
CONTINUOUS
  0
LAYER
  2
DEFPOINTS
 70
     0
 62
     7
  6
CONTINUOUS
  0
LAYER
  2
MASSE
 70
     0
 62
    -3
  6
CONTINUOUS
  0
ENDTAB
  0
TABLE
  2
STYLE
 70
     1
  0
STYLE
  2
STANDARD
 70
     0
 40
0.0
 41
1.0
 50
0.0
 71
     0
 42
2.5
  3
txt
  4

  0
ENDTAB
  0
TABLE
  2
VIEW
 70
     0
  0
ENDTAB
  0
TABLE
  2
UCS
 70
     0
  0
ENDTAB
  0
TABLE
  2
APPID
 70
     1
  0
APPID
  2
ACAD
 70
     0
  0
ENDTAB
  0
TABLE
  2
DIMSTYLE
 70
     2
  0
DIMSTYLE
  2
STANDARD
 70
     0
  3

  4

  5

  6

  7

 40
1.0
 41
0.18
 42
0.0625
 43
0.38
 44
0.18
 45
0.0
 46
0.0
 47
0.0
 48
0.0
140
0.18
141
0.09
142
0.0
143
25.4
144
1.0
145
0.0
146
1.0
147
0.09
 71
     0
 72
     0
 73
     1
 74
     1
 75
     0
 76
     0
 77
     0
 78
     0
170
     0
171
     2
172
     0
173
     0
174
     0
175
     0
176
     0
177
     0
178
     0
  0
DIMSTYLE
  2
ISO-25
 70
     0
  3

  4

  5

  6

  7

 40
1.0
 41
2.5
 42
0.625
 43
3.75
 44
1.25
 45
0.0
 46
0.0
 47
0.0
 48
0.0
140
2.5
141
2.5
142
0.0
143
0.03937007874016
144
1.0
145
0.0
146
1.0
147
0.625
 71
     0
 72
     0
 73
     0
 74
     0
 75
     0
 76
     0
 77
     1
 78
     8
170
     0
171
     3
172
     1
173
     0
174
     0
175
     0
176
     0
177
     0
178
     0
  0
ENDTAB
  0
ENDSEC
  0
SECTION
  2
BLOCKS
  0
BLOCK
  8
0
  2
$MODEL_SPACE
 70
     0
 10
0.0
 20
0.0
 30
0.0
  3
$MODEL_SPACE
  1

  0
ENDBLK
  5
21
  8
0
  0
BLOCK
 67
     1
  8
0
  2
$PAPER_SPACE
 70
     0
 10
0.0
 20
0.0
 30
0.0
  3
$PAPER_SPACE
  1

  0
ENDBLK
  5
76
 67
     1
  8
0
  0
BLOCK
  8
0
  2
*D1
 70
     1
 10
0.0
 20
0.0
 30
0.0
  3
*D1
  1

  0
POINT
  5
4F
  8
DEFPOINTS
  6
BYBLOCK
 62
     0
 10
-26.10523844401166
 20
198.2889722747618
 30
0.0
  0
POINT
  5
50
  8
DEFPOINTS
  6
BYBLOCK
 62
     0
 10
287.1576228841124
 20
198.2889722747618
 30
0.0
  0
LINE
  5
51
  8
0
  6
BYBLOCK
 62
     0
 10
-26.10523844401166
 20
198.9139722747618
 30
0.0
 11
-26.10523844401166
 21
244.2574879899368
 31
0.0
  0
LINE
  5
52
  8
0
  6
BYBLOCK
 62
     0
 10
287.1576228841124
 20
198.9139722747618
 30
0.0
 11
287.1576228841124
 21
244.2574879899368
 31
0.0
  0
LINE
  5
53
  8
0
  6
BYBLOCK
 62
     0
 10
3.894761555988339
 20
243.0074879899368
 30
0.0
 11
257.1576228841124
 21
243.0074879899368
 31
0.0
  0
SOLID
  5
54
  8
0
  6
BYBLOCK
 62
     0
 10
-26.10523844401166
 20
243.0074879899368
 30
0.0
 11
3.894761555988339
 21
238.0074879899358
 31
0.0
 12
3.894761555988339
 22
248.0074879899377
 32
0.0
 13
3.894761555988339
 23
248.0074879899377
 33
0.0
  0
SOLID
  5
55
  8
0
  6
BYBLOCK
 62
     0
 10
287.1576228841124
 20
243.0074879899368
 30
0.0
 11
257.1576228841124
 21
238.0074879899358
 31
0.0
 12
257.1576228841124
 22
248.0074879899377
 32
0.0
 13
257.1576228841124
 23
248.0074879899377
 33
0.0
  0
TEXT
  5
56
  8
0
  6
BYBLOCK
 62
     0
 10
95.42619222005035
 20
243.6324879899368
 30
0.0
 40
30.0
  1
313
  0
ENDBLK
  5
13D
  8
0
  0
BLOCK
  8
0
  2
*D2
 70
     1
 10
0.0
 20
0.0
 30
0.0
  3
*D2
  1

  0
POINT
  5
A3
  8
DEFPOINTS
  6
BYBLOCK
 62
     0
 10
-26.10523844401166
 20
243.0074879899368
 30
0.0
  0
POINT
  5
5B
  8
DEFPOINTS
  6
BYBLOCK
 62
     0
 10
287.1576228841124
 20
243.0074879899368
 30
0.0
  0
LINE
  5
5C
  8
0
  6
BYBLOCK
 62
     0
 10
-26.10523844401166
 20
243.6324879899368
 30
0.0
 11
-26.10523844401166
 21
288.9760037051117
 31
0.0
  0
LINE
  5
5D
  8
0
  6
BYBLOCK
 62
     0
 10
287.1576228841124
 20
243.6324879899368
 30
0.0
 11
287.1576228841124
 21
288.9760037051117
 31
0.0
  0
LINE
  5
A4
  8
0
  6
BYBLOCK
 62
     0
 10
3.894761555988339
 20
287.7260037051117
 30
0.0
 11
257.1576228841124
 21
287.7260037051117
 31
0.0
  0
SOLID
  5
5F
  8
0
  6
BYBLOCK
 62
     0
 10
-26.10523844401166
 20
287.7260037051117
 30
0.0
 11
3.894761555988339
 21
282.7260037051107
 31
0.0
 12
3.894761555988339
 22
292.7260037051127
 32
0.0
 13
3.894761555988339
 23
292.7260037051127
 33
0.0
  0
SOLID
  5
60
  8
0
  6
BYBLOCK
 62
     0
 10
287.1576228841124
 20
287.7260037051117
 30
0.0
 11
257.1576228841124
 21
282.7260037051107
 31
0.0
 12
257.1576228841124
 22
292.7260037051127
 32
0.0
 13
257.1576228841124
 23
292.7260037051127
 33
0.0
  0
TEXT
  5
61
  8
0
  6
BYBLOCK
 62
     0
 10
95.42619222005035
 20
288.3510037051117
 30
0.0
 40
30.0
  1
313
  0
ENDBLK
  5
13F
  8
0
  0
BLOCK
  8
0
  2
*D3
 70
     1
 10
0.0
 20
0.0
 30
0.0
  3
*D3
  1

  0
POINT
  5
66
  8
DEFPOINTS
  6
BYBLOCK
 62
     0
 10
26.10523844401166
 20
-198.2889722747619
 30
0.0
  0
POINT
  5
67
  8
DEFPOINTS
  6
BYBLOCK
 62
     0
 10
234.9471459960943
 20
-198.2889722747626
 30
0.0
  0
LINE
  5
68
  8
0
  6
BYBLOCK
 62
     0
 10
26.10523844401166
 20
-198.9139722747619
 30
0.0
 11
26.10523844401166
 21
-267.8181320396387
 31
0.0
  0
LINE
  5
69
  8
0
  6
BYBLOCK
 62
     0
 10
234.9471459960943
 20
-198.9139722747626
 30
0.0
 11
234.9471459960943
 21
-267.8181320396387
 31
0.0
  0
LINE
  5
6A
  8
0
  6
BYBLOCK
 62
     0
 10
56.10523844401166
 20
-266.5681320396387
 30
0.0
 11
204.9471459960943
 21
-266.5681320396387
 31
0.0
  0
SOLID
  5
A5
  8
0
  6
BYBLOCK
 62
     0
 10
26.10523844401166
 20
-266.5681320396387
 30
0.0
 11
56.10523844401166
 21
-271.5681320396396
 31
0.0
 12
56.10523844401166
 22
-261.5681320396377
 32
0.0
 13
56.10523844401166
 23
-261.5681320396377
 33
0.0
  0
SOLID
  5
A6
  8
0
  6
BYBLOCK
 62
     0
 10
234.9471459960943
 20
-266.5681320396387
 30
0.0
 11
204.9471459960943
 21
-271.5681320396396
 31
0.0
 12
204.9471459960943
 22
-261.5681320396377
 32
0.0
 13
204.9471459960943
 23
-261.5681320396377
 33
0.0
  0
TEXT
  5
6D
  8
0
  6
BYBLOCK
 62
     0
 10
93.02619222005296
 20
-265.9431320396387
 30
0.0
 40
30.0
  1
209
  0
ENDBLK
  5
141
  8
0
  0
BLOCK
  8
0
  2
*D4
 70
     1
 10
0.0
 20
0.0
 30
0.0
  3
*D4
  1

  0
POINT
  5
71
  8
DEFPOINTS
  6
BYBLOCK
 62
     0
 10
26.10523844401166
 20
-267.818132039638
 30
0.0
  0
POINT
  5
72
  8
DEFPOINTS
  6
BYBLOCK
 62
     0
 10
234.9471459960943
 20
-267.8181320396387
 30
0.0
  0
LINE
  5
A7
  8
0
  6
BYBLOCK
 62
     0
 10
26.10523844401166
 20
-268.443132039638
 30
0.0
 11
26.10523844401166
 21
-337.3472918045147
 31
0.0
  0
LINE
  5
A8
  8
0
  6
BYBLOCK
 62
     0
 10
234.9471459960943
 20
-268.4431320396387
 30
0.0
 11
234.9471459960943
 21
-337.3472918045147
 31
0.0
  0
LINE
  5
A9
  8
0
  6
BYBLOCK
 62
     0
 10
56.10523844401166
 20
-336.0972918045147
 30
0.0
 11
204.9471459960943
 21
-336.0972918045147
 31
0.0
  0
SOLID
  5
AA
  8
0
  6
BYBLOCK
 62
     0
 10
26.10523844401166
 20
-336.0972918045147
 30
0.0
 11
56.10523844401166
 21
-341.0972918045158
 31
0.0
 12
56.10523844401166
 22
-331.0972918045137
 32
0.0
 13
56.10523844401166
 23
-331.0972918045137
 33
0.0
  0
SOLID
  5
77
  8
0
  6
BYBLOCK
 62
     0
 10
234.9471459960943
 20
-336.0972918045147
 30
0.0
 11
204.9471459960943
 21
-341.0972918045158
 31
0.0
 12
204.9471459960943
 22
-331.0972918045137
 32
0.0
 13
204.9471459960943
 23
-331.0972918045137
 33
0.0
  0
TEXT
  5
78
  8
0
  6
BYBLOCK
 62
     0
 10
93.02619222005296
 20
-335.4722918045147
 30
0.0
 40
30.0
  1
209
  0
ENDBLK
  5
143
  8
0
  0
BLOCK
  8
0
  2
*D5
 70
     1
 10
0.0
 20
0.0
 30
0.0
  3
*D5
  1

  0
POINT
  5
B4
  8
DEFPOINTS
  6
BYBLOCK
 62
     0
 10
-26.10523844401166
 20
243.0074879899368
 30
0.0
  0
POINT
  5
B5
  8
DEFPOINTS
  6
BYBLOCK
 62
     0
 10
287.1576228841124
 20
243.0074879899368
 30
0.0
  0
LINE
  5
B6
  8
0
  6
BYBLOCK
 62
     0
 10
-26.10523844401166
 20
243.6324879899368
 30
0.0
 11
-26.10523844401166
 21
288.9760037051117
 31
0.0
  0
LINE
  5
B7
  8
0
  6
BYBLOCK
 62
     0
 10
287.1576228841124
 20
243.6324879899368
 30
0.0
 11
287.1576228841124
 21
288.9760037051117
 31
0.0
  0
LINE
  5
B8
  8
0
  6
BYBLOCK
 62
     0
 10
3.894761555988339
 20
287.7260037051117
 30
0.0
 11
257.1576228841124
 21
287.7260037051117
 31
0.0
  0
SOLID
  5
B9
  8
0
  6
BYBLOCK
 62
     0
 10
-26.10523844401166
 20
287.7260037051117
 30
0.0
 11
3.894761555988339
 21
282.7260037051107
 31
0.0
 12
3.894761555988339
 22
292.7260037051127
 32
0.0
 13
3.894761555988339
 23
292.7260037051127
 33
0.0
  0
SOLID
  5
BA
  8
0
  6
BYBLOCK
 62
     0
 10
287.1576228841124
 20
287.7260037051117
 30
0.0
 11
257.1576228841124
 21
282.7260037051107
 31
0.0
 12
257.1576228841124
 22
292.7260037051127
 32
0.0
 13
257.1576228841124
 23
292.7260037051127
 33
0.0
  0
TEXT
  5
BB
  8
0
  6
BYBLOCK
 62
     0
 10
95.42619222005035
 20
288.3510037051117
 30
0.0
 40
30.0
  1
313
  0
ENDBLK
  5
145
  8
0
  0
BLOCK
  8
0
  2
*D6
 70
     1
 10
0.0
 20
0.0
 30
0.0
  3
*D6
  1

  0
POINT
  5
C0
  8
DEFPOINTS
  6
BYBLOCK
 62
     0
 10
26.10523844401166
 20
-267.818132039638
 30
0.0
  0
POINT
  5
C1
  8
DEFPOINTS
  6
BYBLOCK
 62
     0
 10
234.9471459960943
 20
-267.8181320396387
 30
0.0
  0
LINE
  5
C2
  8
0
  6
BYBLOCK
 62
     0
 10
26.10523844401166
 20
-268.443132039638
 30
0.0
 11
26.10523844401166
 21
-337.3472918045147
 31
0.0
  0
LINE
  5
C3
  8
0
  6
BYBLOCK
 62
     0
 10
234.9471459960943
 20
-268.4431320396387
 30
0.0
 11
234.9471459960943
 21
-337.3472918045147
 31
0.0
  0
LINE
  5
C4
  8
0
  6
BYBLOCK
 62
     0
 10
56.10523844401166
 20
-336.0972918045147
 30
0.0
 11
204.9471459960943
 21
-336.0972918045147
 31
0.0
  0
SOLID
  5
C5
  8
0
  6
BYBLOCK
 62
     0
 10
26.10523844401166
 20
-336.0972918045147
 30
0.0
 11
56.10523844401166
 21
-341.0972918045158
 31
0.0
 12
56.10523844401166
 22
-331.0972918045137
 32
0.0
 13
56.10523844401166
 23
-331.0972918045137
 33
0.0
  0
SOLID
  5
C6
  8
0
  6
BYBLOCK
 62
     0
 10
234.9471459960943
 20
-336.0972918045147
 30
0.0
 11
204.9471459960943
 21
-341.0972918045158
 31
0.0
 12
204.9471459960943
 22
-331.0972918045137
 32
0.0
 13
204.9471459960943
 23
-331.0972918045137
 33
0.0
  0
TEXT
  5
C7
  8
0
  6
BYBLOCK
 62
     0
 10
93.02619222005296
 20
-335.4722918045147
 30
0.0
 40
30.0
  1
209
  0
ENDBLK
  5
147
  8
0
  0
BLOCK
  8
0
  2
*D7
 70
     1
 10
0.0
 20
0.0
 30
0.0
  3
*D7
  1

  0
POINT
  5
E2
  8
DEFPOINTS
  6
BYBLOCK
 62
     0
 10
-26.10523844401166
 20
243.0074879899368
 30
0.0
  0
POINT
  5
E3
  8
DEFPOINTS
  6
BYBLOCK
 62
     0
 10
287.1576228841124
 20
243.0074879899368
 30
0.0
  0
LINE
  5
E4
  8
0
  6
BYBLOCK
 62
     0
 10
-26.10523844401166
 20
243.6324879899368
 30
0.0
 11
-26.10523844401166
 21
288.9760037051117
 31
0.0
  0
LINE
  5
E5
  8
0
  6
BYBLOCK
 62
     0
 10
287.1576228841124
 20
243.6324879899368
 30
0.0
 11
287.1576228841124
 21
288.9760037051117
 31
0.0
  0
LINE
  5
E6
  8
0
  6
BYBLOCK
 62
     0
 10
-23.60523844401166
 20
287.7260037051117
 30
0.0
 11
284.6576228841124
 21
287.7260037051117
 31
0.0
  0
SOLID
  5
E7
  8
0
  6
BYBLOCK
 62
     0
 10
-26.10523844401166
 20
287.7260037051117
 30
0.0
 11
-23.60523844401166
 21
287.309337038445
 31
0.0
 12
-23.60523844401166
 22
288.1426703717785
 32
0.0
 13
-23.60523844401166
 23
288.1426703717785
 33
0.0
  0
SOLID
  5
E8
  8
0
  6
BYBLOCK
 62
     0
 10
287.1576228841124
 20
287.7260037051117
 30
0.0
 11
284.6576228841124
 21
287.309337038445
 31
0.0
 12
284.6576228841124
 22
288.1426703717785
 32
0.0
 13
284.6576228841124
 23
288.1426703717785
 33
0.0
  0
TEXT
  5
E9
  8
0
  6
BYBLOCK
 62
     0
 10
124.4761922200504
 20
288.7760037051118
 30
0.0
 40
2.5
  1
313,26
  0
ENDBLK
  5
149
  8
0
  0
BLOCK
  8
0
  2
*D8
 70
     1
 10
0.0
 20
0.0
 30
0.0
  3
*D8
  1

  0
POINT
  5
EE
  8
DEFPOINTS
  6
BYBLOCK
 62
     0
 10
26.10523844401166
 20
-267.8181320396379
 30
0.0
  0
POINT
  5
EF
  8
DEFPOINTS
  6
BYBLOCK
 62
     0
 10
234.9471459960943
 20
-267.8181320396386
 30
0.0
  0
LINE
  5
F0
  8
0
  6
BYBLOCK
 62
     0
 10
26.10523844401166
 20
-268.4431320396379
 30
0.0
 11
26.10523844401166
 21
-337.3472918045147
 31
0.0
  0
LINE
  5
F1
  8
0
  6
BYBLOCK
 62
     0
 10
234.9471459960943
 20
-268.4431320396386
 30
0.0
 11
234.9471459960943
 21
-337.3472918045147
 31
0.0
  0
LINE
  5
F2
  8
0
  6
BYBLOCK
 62
     0
 10
28.60523844401166
 20
-336.0972918045147
 30
0.0
 11
232.4471459960943
 21
-336.0972918045147
 31
0.0
  0
SOLID
  5
F3
  8
0
  6
BYBLOCK
 62
     0
 10
26.10523844401166
 20
-336.0972918045147
 30
0.0
 11
28.60523844401166
 21
-336.5139584711814
 31
0.0
 12
28.60523844401166
 22
-335.6806251378479
 32
0.0
 13
28.60523844401166
 23
-335.6806251378479
 33
0.0
  0
SOLID
  5
F4
  8
0
  6
BYBLOCK
 62
     0
 10
234.9471459960943
 20
-336.0972918045147
 30
0.0
 11
232.4471459960943
 21
-336.5139584711814
 31
0.0
 12
232.4471459960943
 22
-335.6806251378479
 32
0.0
 13
232.4471459960943
 23
-335.6806251378479
 33
0.0
  0
TEXT
  5
F5
  8
0
  6
BYBLOCK
 62
     0
 10
124.276192220053
 20
-335.0472918045147
 30
0.0
 40
2.5
  1
208,84
  0
ENDBLK
  5
14B
  8
0
  0
BLOCK
  8
0
  2
NRE-390
 70
     0
 10
0.0
 20
0.0
 30
0.0
  3
NRE-390
  1

  0
POLYLINE
  5
12D
  8
0
 66
     1
 10
0.0
 20
0.0
 30
0.0
  0
VERTEX
  5
158
  8
0
 10
-26.10523844401166
 20
198.2889722747619
 30
0.0
  0
VERTEX
  5
159
  8
0
 10
287.1576228841124
 20
198.2889722747619
 30
0.0
  0
VERTEX
  5
15A
  8
0
 10
234.9471459960943
 20
-198.2889722747626
 30
0.0
  0
VERTEX
  5
15B
  8
0
 10
26.10523844401166
 20
-198.2889722747619
 30
0.0
  0
VERTEX
  5
15C
  8
0
 10
-26.10523844401166
 20
198.2889722747619
 30
0.0
  0
SEQEND
  5
157
  8
0
  0
POLYLINE
  5
12E
  8
0
 66
     1
 10
0.0
 20
0.0
 30
0.0
 40
9.0
 41
9.0
  0
VERTEX
  5
15E
  8
0
 10
-0.0000000000014779
 20
-0.0000000000001705
 30
0.0
 42
-0.0655434628152387
  0
VERTEX
  5
15F
  8
0
 10
261.052384440102
 20
-0.0000000000001705
 30
0.0
 42
-15.25705168826544
  0
SEQEND
  5
15D
  8
0
  0
TEXT
  5
12F
  8
0
 10
51.77329342839238
 20
-25.2727799443532
 30
0.0
 40
20.0
  1
Mühlberg
  0
TEXT
  5
130
  8
0
 10
50.13576401519696
 20
-90.41605333695026
 30
0.0
 40
50.0
  1
NRE-
  0
TEXT
  5
131
  8
0
 10
50.13576401519697
 20
-173.7493533369502
 30
0.0
 40
50.0
  1
390
  0
TEXT
  5
132
  8
0
 10
17.50506838425539
 20
23.03187844092003
 30
0.0
 40
50.0
  1
EvSta
  0
TEXT
  5
133
  8
0
 10
88.29620396881015
 20
85.26908260070873
 30
0.0
 40
50.0
  1
15°
  0
TEXT
  5
134
  8
0
 62
     2
 10
0.5550781738690187
 20
156.6376836286713
 30
0.0
 40
25.0
  1
DL 07/17
  0
ENDBLK
  5
14D
  8
0
  0
ENDSEC
  0
SECTION
  2
ENTITIES
  0
DIMENSION
  5
E0
  8
MASSE
  2
*D7
 10
287.1576228841124
 20
287.7260037051117
 30
0.0
 11
130.5261922200504
 21
289.8135037051118
 31
0.0
 70
    32
  3
ISO-25
 13
-26.10523844401166
 23
243.0074879899368
 33
0.0
 14
287.1576228841124
 24
243.0074879899368
 34
0.0
  0
DIMENSION
  5
EC
  8
MASSE
  2
*D8
 10
234.9471459960943
 20
-336.0972918045147
 30
0.0
 11
130.526192220053
 21
-334.0097918045146
 31
0.0
 70
    32
  3
ISO-25
 13
26.10523844401166
 23
-267.8181320396379
 33
0.0
 14
234.9471459960943
 24
-267.8181320396386
 34
0.0
  0
INSERT
  5
137
  8
0
  2
NRE-390
 10
0.0
 20
0.0
 30
0.0
  0
ENDSEC
  0
EOF
