  0
SECTION
  2
HEADER
  9
$ACADVER
  1
AC1009
  9
$DWGCODEPAGE
  3
ansi_1252
  9
$INSBASE
 10
0.0
 20
0.0
 30
0.0
  9
$EXTMIN
 10
-583.4421707096724
 20
167.3030832200289
 30
0.0
  9
$EXTMAX
 10
188.248668864177
 20
735.0774737399333
 30
0.0
  9
$LIMMIN
 10
0.0
 20
0.0
  9
$LIMMAX
 10
420.0
 20
297.0
  9
$ORTHOMODE
 70
     0
  9
$REGENMODE
 70
     1
  9
$FILLMODE
 70
     1
  9
$QTEXTMODE
 70
     0
  9
$MIRRTEXT
 70
     0
  9
$DRAGMODE
 70
     2
  9
$LTSCALE
 40
1.0
  9
$OSMODE
 70
    37
  9
$ATTMODE
 70
     1
  9
$TEXTSIZE
 40
2.5
  9
$TRACEWID
 40
1.0
  9
$TEXTSTYLE
  7
STANDARD
  9
$CLAYER
  8
0
  9
$CELTYPE
  6
BYLAYER
  9
$CECOLOR
 62
   256
  9
$DIMSCALE
 40
1.0
  9
$DIMASZ
 40
2.5
  9
$DIMEXO
 40
0.625
  9
$DIMDLI
 40
3.75
  9
$DIMRND
 40
0.0
  9
$DIMDLE
 40
0.0
  9
$DIMEXE
 40
1.25
  9
$DIMTP
 40
0.0
  9
$DIMTM
 40
0.0
  9
$DIMTXT
 40
2.5
  9
$DIMCEN
 40
2.5
  9
$DIMTSZ
 40
0.0
  9
$DIMTOL
 70
     0
  9
$DIMLIM
 70
     0
  9
$DIMTIH
 70
     0
  9
$DIMTOH
 70
     0
  9
$DIMSE1
 70
     0
  9
$DIMSE2
 70
     0
  9
$DIMTAD
 70
     1
  9
$DIMZIN
 70
     8
  9
$DIMBLK
  1

  9
$DIMASO
 70
     1
  9
$DIMSHO
 70
     1
  9
$DIMPOST
  1

  9
$DIMAPOST
  1

  9
$DIMALT
 70
     0
  9
$DIMALTD
 70
     3
  9
$DIMALTF
 40
0.03937007874016
  9
$DIMLFAC
 40
1.0
  9
$DIMTOFL
 70
     1
  9
$DIMTVP
 40
0.0
  9
$DIMTIX
 70
     0
  9
$DIMSOXD
 70
     0
  9
$DIMSAH
 70
     0
  9
$DIMBLK1
  1

  9
$DIMBLK2
  1

  9
$DIMSTYLE
  2
ISO-25
  9
$DIMCLRD
 70
     0
  9
$DIMCLRE
 70
     0
  9
$DIMCLRT
 70
     0
  9
$DIMTFAC
 40
1.0
  9
$DIMGAP
 40
0.625
  9
$LUNITS
 70
     2
  9
$LUPREC
 70
     4
  9
$SKETCHINC
 40
1.0
  9
$FILLETRAD
 40
0.0
  9
$AUNITS
 70
     0
  9
$AUPREC
 70
     0
  9
$MENU
  1
.
  9
$ELEVATION
 40
0.0
  9
$PELEVATION
 40
0.0
  9
$THICKNESS
 40
0.0
  9
$LIMCHECK
 70
     0
  9
$CHAMFERA
 40
0.0
  9
$CHAMFERB
 40
0.0
  9
$SKPOLY
 70
     0
  9
$TDCREATE
 40
2453353.800459155
  9
$TDUPDATE
 40
2454574.141497778
  9
$TDINDWG
 40
9791572.06217926
  9
$TDUSRTIMER
 40
9791572.06217926
  9
$USRTIMER
 70
     1
  9
$ANGBASE
 50
0.0
  9
$ANGDIR
 70
     0
  9
$PDMODE
 70
     0
  9
$PDSIZE
 40
0.0
  9
$PLINEWID
 40
0.0
  9
$COORDS
 70
     1
  9
$SPLFRAME
 70
     0
  9
$SPLINETYPE
 70
     6
  9
$SPLINESEGS
 70
     8
  9
$ATTDIA
 70
     0
  9
$ATTREQ
 70
     1
  9
$HANDLING
 70
     1
  9
$HANDSEED
  5
C3
  9
$SURFTAB1
 70
     6
  9
$SURFTAB2
 70
     6
  9
$SURFTYPE
 70
     6
  9
$SURFU
 70
     6
  9
$SURFV
 70
     6
  9
$UCSNAME
  2

  9
$UCSORG
 10
0.0
 20
0.0
 30
0.0
  9
$UCSXDIR
 10
1.0
 20
0.0
 30
0.0
  9
$UCSYDIR
 10
0.0
 20
1.0
 30
0.0
  9
$PUCSNAME
  2

  9
$PUCSORG
 10
0.0
 20
0.0
 30
0.0
  9
$PUCSXDIR
 10
1.0
 20
0.0
 30
0.0
  9
$PUCSYDIR
 10
0.0
 20
1.0
 30
0.0
  9
$USERI1
 70
     0
  9
$USERI2
 70
     0
  9
$USERI3
 70
     0
  9
$USERI4
 70
     0
  9
$USERI5
 70
     0
  9
$USERR1
 40
0.0
  9
$USERR2
 40
0.0
  9
$USERR3
 40
0.0
  9
$USERR4
 40
0.0
  9
$USERR5
 40
0.0
  9
$WORLDVIEW
 70
     1
  9
$SHADEDGE
 70
     3
  9
$SHADEDIF
 70
    70
  9
$TILEMODE
 70
     1
  9
$MAXACTVP
 70
    64
  9
$PLIMCHECK
 70
     0
  9
$PEXTMIN
 10
1.000000000000000E+20
 20
1.000000000000000E+20
 30
1.000000000000000E+20
  9
$PEXTMAX
 10
-1.000000000000000E+20
 20
-1.000000000000000E+20
 30
-1.000000000000000E+20
  9
$PLIMMIN
 10
0.0
 20
0.0
  9
$PLIMMAX
 10
420.0
 20
297.0
  9
$UNITMODE
 70
     0
  9
$VISRETAIN
 70
     1
  9
$PLINEGEN
 70
     0
  9
$PSLTSCALE
 70
     1
  0
ENDSEC
  0
SECTION
  2
TABLES
  0
TABLE
  2
VPORT
 70
     1
  0
VPORT
  2
*ACTIVE
 70
     0
 10
0.0
 20
0.0
 11
1.0
 21
1.0
 12
-112.0200874635569
 22
315.518334673771
 13
0.0
 23
0.0
 14
10.0
 24
10.0
 15
10.0
 25
10.0
 16
0.0
 26
0.0
 36
1.0
 17
0.0
 27
0.0
 37
0.0
 40
1236.984589754269
 41
1.664827586206897
 42
50.0
 43
0.0
 44
0.0
 50
0.0
 51
0.0
 71
    16
 72
  1000
 73
     1
 74
     1
 75
     0
 76
     0
 77
     0
 78
     0
  0
ENDTAB
  0
TABLE
  2
LTYPE
 70
     1
  0
LTYPE
  2
CONTINUOUS
 70
     0
  3
Solid line
 72
    65
 73
     0
 40
0.0
  0
ENDTAB
  0
TABLE
  2
LAYER
 70
     3
  0
LAYER
  2
0
 70
     0
 62
     7
  6
CONTINUOUS
  0
LAYER
  2
INFO
 70
     0
 62
     3
  6
CONTINUOUS
  0
LAYER
  2
DEFPOINTS
 70
     0
 62
     7
  6
CONTINUOUS
  0
ENDTAB
  0
TABLE
  2
STYLE
 70
     1
  0
STYLE
  2
STANDARD
 70
     0
 40
0.0
 41
1.0
 50
0.0
 71
     0
 42
2.5
  3
txt
  4

  0
ENDTAB
  0
TABLE
  2
VIEW
 70
     0
  0
ENDTAB
  0
TABLE
  2
UCS
 70
     0
  0
ENDTAB
  0
TABLE
  2
APPID
 70
     1
  0
APPID
  2
ACAD
 70
     0
  0
ENDTAB
  0
TABLE
  2
DIMSTYLE
 70
     2
  0
DIMSTYLE
  2
STANDARD
 70
     0
  3

  4

  5

  6

  7

 40
1.0
 41
0.18
 42
0.0625
 43
0.38
 44
0.18
 45
0.0
 46
0.0
 47
0.0
 48
0.0
140
0.18
141
0.09
142
0.0
143
25.4
144
1.0
145
0.0
146
1.0
147
0.09
 71
     0
 72
     0
 73
     1
 74
     1
 75
     0
 76
     0
 77
     0
 78
     0
170
     0
171
     2
172
     0
173
     0
174
     0
175
     0
176
     0
177
     0
178
     0
  0
DIMSTYLE
  2
ISO-25
 70
     0
  3

  4

  5

  6

  7

 40
1.0
 41
2.5
 42
0.625
 43
3.75
 44
1.25
 45
0.0
 46
0.0
 47
0.0
 48
0.0
140
2.5
141
2.5
142
0.0
143
0.03937007874016
144
1.0
145
0.0
146
1.0
147
0.625
 71
     0
 72
     0
 73
     0
 74
     0
 75
     0
 76
     0
 77
     1
 78
     8
170
     0
171
     3
172
     1
173
     0
174
     0
175
     0
176
     0
177
     0
178
     0
  0
ENDTAB
  0
ENDSEC
  0
SECTION
  2
BLOCKS
  0
BLOCK
  8
0
  2
$MODEL_SPACE
 70
     0
 10
0.0
 20
0.0
 30
0.0
  3
$MODEL_SPACE
  1

  0
ENDBLK
  5
21
  8
0
  0
BLOCK
 67
     1
  8
0
  2
$PAPER_SPACE
 70
     0
 10
0.0
 20
0.0
 30
0.0
  3
$PAPER_SPACE
  1

  0
ENDBLK
  5
76
 67
     1
  8
0
  0
BLOCK
  8
0
  2
*D1
 70
     1
 10
0.0
 20
0.0
 30
0.0
  3
*D1
  1

  0
LINE
  5
34
  8
INFO
 62
     0
 10
0.0161761903189075
 20
0.0603703641430668
 30
0.0
 11
28.34541978692475
 21
105.7865468066714
 31
0.0
  0
LINE
  5
35
  8
INFO
 62
     0
 10
-715.0161761903189
 20
0.0603703641430668
 30
0.0
 11
-743.3454197869247
 21
105.7865468066714
 31
0.0
  0
ARC
  5
36
  8
INFO
 62
     0
 10
-357.5
 20
-1334.208163705873
 30
0.0
 40
1490.61222371015
 50
75.00691879494693
 51
87.92044557296488
  0
ARC
  5
37
  8
INFO
 62
     0
 10
-357.5
 20
-1334.208163705873
 30
0.0
 40
1490.61222371015
 50
92.07955442703511
 51
104.9930812050531
  0
SOLID
  5
38
  8
INFO
 62
     0
 10
28.11720007581895
 20
105.6302788447296
 30
0.0
 11
28.13272571926381
 21
105.6882353318179
 31
0.0
 12
28.29883235880647
 22
105.6126801579392
 32
0.0
 13
28.29883235880647
 23
105.6126801579392
 33
0.0
  0
SOLID
  5
39
  8
INFO
 62
     0
 10
-743.1327257192636
 20
105.6882353318181
 30
0.0
 11
-743.1172000758188
 21
105.6302788447298
 31
0.0
 12
-743.2988323588063
 22
105.6126801579394
 32
0.0
 13
-743.2988323588063
 23
105.6126801579394
 33
0.0
  0
TEXT
  5
3A
  8
INFO
 62
     0
 10
-411.4999999999999
 20
131.4040600042772
 30
0.0
 40
50.0
  1
30\U+00B0
  0
POINT
  5
3B
  8
DEFPOINTS
 62
     0
 10
-157.3781080513444
 20
142.9093095632674
 30
0.0
  0
POINT
  5
3C
  8
DEFPOINTS
 62
     0
 10
0.0
 20
0.0
 30
0.0
  0
POINT
  5
3D
  8
DEFPOINTS
 62
     0
 10
-715.0
 20
0.0
 30
0.0
  0
POINT
  5
A3
  8
DEFPOINTS
 62
     0
 10
-666.4714290432773
 20
-181.1110924292003
 30
0.0
  0
POINT
  5
A4
  8
DEFPOINTS
 62
     0
 10
-48.52857095672266
 20
-181.1110924292003
 30
0.0
  0
ENDBLK
  5
AF
  8
0
  0
BLOCK
  8
0
  2
*D2
 70
     1
 10
0.0
 20
0.0
 30
0.0
  3
*D2
  1

  0
LINE
  5
41
  8
INFO
 62
     0
 10
0.0
 20
0.0625
 30
0.0
 11
0.0
 21
59.95788164114682
 31
0.0
  0
LINE
  5
42
  8
INFO
 62
     0
 10
-715.0
 20
0.0625
 30
0.0
 11
-715.0
 21
59.95788164114682
 31
0.0
  0
LINE
  5
43
  8
INFO
 62
     0
 10
-0.1799999999999927
 20
59.77788164114682
 30
0.0
 11
-207.66
 21
59.77788164114682
 31
0.0
  0
LINE
  5
44
  8
INFO
 62
     0
 10
-714.8200000000001
 20
59.77788164114682
 30
0.0
 11
-507.34
 21
59.77788164114683
 31
0.0
  0
SOLID
  5
45
  8
INFO
 62
     0
 10
-0.1799999999999927
 20
59.74788164114682
 30
0.0
 11
-0.1799999999999927
 21
59.80788164114682
 31
0.0
 12
0.0000000000000073
 22
59.77788164114682
 32
0.0
 13
0.0000000000000073
 23
59.77788164114682
 33
0.0
  0
SOLID
  5
46
  8
INFO
 62
     0
 10
-714.8200000000001
 20
59.80788164114682
 30
0.0
 11
-714.8200000000001
 21
59.74788164114682
 31
0.0
 12
-715.0
 22
59.77788164114682
 32
0.0
 13
-715.0
 23
59.77788164114682
 33
0.0
  0
TEXT
  5
47
  8
INFO
 62
     0
 10
-207.75
 20
84.77788164114681
 30
0.0
 40
50.0
  1
715.0000
 50
180.0
  0
POINT
  5
48
  8
DEFPOINTS
 62
     0
 10
0.0
 20
0.0
 30
0.0
  0
POINT
  5
A5
  8
DEFPOINTS
 62
     0
 10
-715.0
 20
0.0
 30
0.0
  0
POINT
  5
A6
  8
DEFPOINTS
 62
     0
 10
-715.0
 20
59.77788164114682
 30
0.0
  0
ENDBLK
  5
B1
  8
0
  0
BLOCK
  8
0
  2
NRE-227
 70
     0
 10
0.0
 20
0.0
 30
0.0
  3
NRE-227
  1

  0
LINE
  5
4C
  8
0
 10
-715.0
 20
0.0
 30
0.0
 11
-666.4714290432773
 21
-181.1110924292003
 31
0.0
  0
LINE
  5
4D
  8
0
 10
-666.4714290432773
 20
-181.1110924292003
 30
0.0
 11
-660.0009529157144
 21
-205.259238086427
 31
0.0
  0
LINE
  5
4E
  8
0
 10
-660.0009529157144
 20
-205.259238086427
 30
0.0
 11
-611.4723819589917
 21
-386.3703305156272
 31
0.0
  0
LINE
  5
4F
  8
0
 10
0.0
 20
0.0
 30
0.0
 11
-48.52857095672266
 21
-181.1110924292003
 31
0.0
  0
LINE
  5
50
  8
0
 10
-48.52857095672266
 20
-181.1110924292003
 30
0.0
 11
-54.99904708428562
 21
-205.259238086427
 31
0.0
  0
LINE
  5
51
  8
0
 10
-54.99904708428562
 20
-205.259238086427
 30
0.0
 11
-103.5276180410083
 21
-386.3703305156272
 31
0.0
  0
LINE
  5
52
  8
0
 10
-715.0
 20
0.0
 30
0.0
 11
0.0
 21
0.0
 31
0.0
  0
LINE
  5
53
  8
0
 10
-611.4723819589917
 20
-386.3703305156272
 30
0.0
 11
-103.5276180410083
 21
-386.3703305156272
 31
0.0
  0
POLYLINE
  5
54
  8
0
 66
     1
 10
0.0
 20
0.0
 30
0.0
 40
9.0
 41
9.0
  0
VERTEX
  5
BE
  8
0
 10
-660.0009529157144
 20
-205.259238086427
 30
0.0
 42
-0.1317428127082693
  0
VERTEX
  5
BF
  8
0
 10
-54.99904708428562
 20
-205.259238086427
 30
0.0
 42
-7.590546910626492
  0
SEQEND
  5
BD
  8
0
  0
POLYLINE
  5
55
  8
0
 66
     1
 10
0.0
 20
0.0
 30
0.0
 40
9.0
 41
9.0
  0
VERTEX
  5
C1
  8
0
 10
-666.4714290432773
 20
-181.1110924292003
 30
0.0
 42
-0.1316266918383763
  0
VERTEX
  5
C2
  8
0
 10
-48.52857095672266
 20
-181.1110924292003
 30
0.0
 42
-7.597243279713311
  0
SEQEND
  5
C0
  8
0
  0
TEXT
  5
56
  8
0
 62
     2
 10
-487.5862467177116
 20
-352.4220417284152
 30
0.0
 40
25.0
  1
FJ 04/2008
  0
TEXT
  5
57
  8
0
 10
-511.271640593939
 20
-123.0120838986685
 30
0.0
 40
50.0
  1
NRE-227
  0
TEXT
  5
58
  8
0
 10
-482.5108051728056
 20
-60.41497151149571
 30
0.0
 40
50.0
  1
ChMar
  0
TEXT
  5
A1
  8
0
 10
-575.9568491845336
 20
-288.7307101614974
 30
0.0
 40
80.0
  1
Bogen1
  0
DIMENSION
  5
A2
  8
INFO
  2
*D1
 10
-48.52857095672266
 20
-181.1110924292003
 30
0.0
 11
-357.4999999999999
 21
156.4040600042772
 31
0.0
 70
    34
  3
STANDARD
 13
-715.0
 23
0.0
 33
0.0
 14
-666.4714290432773
 24
-181.1110924292003
 34
0.0
 15
0.0
 25
0.0
 35
0.0
 16
-157.3781080513444
 26
142.9093095632674
 36
0.0
1001
ACAD
1000
DSTYLE
1002
{
1070
   140
1040
50.0
1002
}
  0
DIMENSION
  5
5B
  8
INFO
  2
*D2
 10
-715.0
 20
59.77788164114682
 30
0.0
 11
-357.5
 21
59.77788164114682
 31
0.0
 70
    33
 53
180.0
  3
STANDARD
 13
0.0
 23
0.0
 33
0.0
 14
-715.0
 24
0.0
 34
0.0
1001
ACAD
1000
DSTYLE
1002
{
1070
   140
1040
50.0
1002
}
  0
ENDBLK
  5
B3
  8
0
  0
ENDSEC
  0
SECTION
  2
ENTITIES
  0
INSERT
  5
A7
  8
0
  2
NRE-227
 10
159.9032490772523
 20
553.6734137356561
 30
0.0
  0
ENDSEC
  0
EOF
