  0
SECTION
  2
HEADER
  9
$ACADVER
  1
AC1009
  9
$DWGCODEPAGE
  3
ansi_1252
  9
$INSBASE
 10
0.0
 20
0.0
 30
0.0
  9
$EXTMIN
 10
-620.6726774904777
 20
-1883.838143727886
 30
0.0
  9
$EXTMAX
 10
4160.000000000003
 20
175.0
 30
0.0
  9
$LIMMIN
 10
0.0
 20
0.0
  9
$LIMMAX
 10
420.0
 20
297.0
  9
$ORTHOMODE
 70
     0
  9
$REGENMODE
 70
     1
  9
$FILLMODE
 70
     1
  9
$QTEXTMODE
 70
     0
  9
$MIRRTEXT
 70
     0
  9
$DRAGMODE
 70
     2
  9
$LTSCALE
 40
1.0
  9
$OSMODE
 70
    37
  9
$ATTMODE
 70
     1
  9
$TEXTSIZE
 40
50.0
  9
$TRACEWID
 40
1.0
  9
$TEXTSTYLE
  7
STANDARD
  9
$CLAYER
  8
0
  9
$CELTYPE
  6
BYLAYER
  9
$CECOLOR
 62
   256
  9
$DIMSCALE
 40
1.0
  9
$DIMASZ
 40
50.0
  9
$DIMEXO
 40
0.625
  9
$DIMDLI
 40
3.75
  9
$DIMRND
 40
0.0
  9
$DIMDLE
 40
0.0
  9
$DIMEXE
 40
1.25
  9
$DIMTP
 40
0.0
  9
$DIMTM
 40
0.0
  9
$DIMTXT
 40
50.0
  9
$DIMCEN
 40
2.5
  9
$DIMTSZ
 40
0.0
  9
$DIMTOL
 70
     0
  9
$DIMLIM
 70
     0
  9
$DIMTIH
 70
     0
  9
$DIMTOH
 70
     0
  9
$DIMSE1
 70
     0
  9
$DIMSE2
 70
     0
  9
$DIMTAD
 70
     1
  9
$DIMZIN
 70
     8
  9
$DIMBLK
  1

  9
$DIMASO
 70
     1
  9
$DIMSHO
 70
     1
  9
$DIMPOST
  1

  9
$DIMAPOST
  1

  9
$DIMALT
 70
     0
  9
$DIMALTD
 70
     3
  9
$DIMALTF
 40
0.03937007874016
  9
$DIMLFAC
 40
1.0
  9
$DIMTOFL
 70
     1
  9
$DIMTVP
 40
0.0
  9
$DIMTIX
 70
     0
  9
$DIMSOXD
 70
     0
  9
$DIMSAH
 70
     0
  9
$DIMBLK1
  1

  9
$DIMBLK2
  1

  9
$DIMSTYLE
  2
ISO-25
  9
$DIMCLRD
 70
     0
  9
$DIMCLRE
 70
     0
  9
$DIMCLRT
 70
     0
  9
$DIMTFAC
 40
1.0
  9
$DIMGAP
 40
0.625
  9
$LUNITS
 70
     2
  9
$LUPREC
 70
     4
  9
$SKETCHINC
 40
1.0
  9
$FILLETRAD
 40
0.0
  9
$AUNITS
 70
     0
  9
$AUPREC
 70
     0
  9
$MENU
  1
.
  9
$ELEVATION
 40
0.0
  9
$PELEVATION
 40
0.0
  9
$THICKNESS
 40
0.0
  9
$LIMCHECK
 70
     0
  9
$CHAMFERA
 40
0.0
  9
$CHAMFERB
 40
0.0
  9
$SKPOLY
 70
     0
  9
$TDCREATE
 40
2453353.800459155
  9
$TDUPDATE
 40
2457278.161937778
  9
$TDINDWG
 40
2440772.066245926
  9
$TDUSRTIMER
 40
2440772.066245926
  9
$USRTIMER
 70
     1
  9
$ANGBASE
 50
0.0
  9
$ANGDIR
 70
     0
  9
$PDMODE
 70
     0
  9
$PDSIZE
 40
0.0
  9
$PLINEWID
 40
9.0
  9
$COORDS
 70
     1
  9
$SPLFRAME
 70
     0
  9
$SPLINETYPE
 70
     6
  9
$SPLINESEGS
 70
     8
  9
$ATTDIA
 70
     0
  9
$ATTREQ
 70
     1
  9
$HANDLING
 70
     1
  9
$HANDSEED
  5
7A2
  9
$SURFTAB1
 70
     6
  9
$SURFTAB2
 70
     6
  9
$SURFTYPE
 70
     6
  9
$SURFU
 70
     6
  9
$SURFV
 70
     6
  9
$UCSNAME
  2

  9
$UCSORG
 10
0.0
 20
0.0
 30
0.0
  9
$UCSXDIR
 10
1.0
 20
0.0
 30
0.0
  9
$UCSYDIR
 10
0.0
 20
1.0
 30
0.0
  9
$PUCSNAME
  2

  9
$PUCSORG
 10
0.0
 20
0.0
 30
0.0
  9
$PUCSXDIR
 10
1.0
 20
0.0
 30
0.0
  9
$PUCSYDIR
 10
0.0
 20
1.0
 30
0.0
  9
$USERI1
 70
     0
  9
$USERI2
 70
     0
  9
$USERI3
 70
     0
  9
$USERI4
 70
     0
  9
$USERI5
 70
     0
  9
$USERR1
 40
0.0
  9
$USERR2
 40
0.0
  9
$USERR3
 40
0.0
  9
$USERR4
 40
0.0
  9
$USERR5
 40
0.0
  9
$WORLDVIEW
 70
     1
  9
$SHADEDGE
 70
     3
  9
$SHADEDIF
 70
    70
  9
$TILEMODE
 70
     1
  9
$MAXACTVP
 70
    64
  9
$PLIMCHECK
 70
     0
  9
$PEXTMIN
 10
1.000000000000000E+20
 20
1.000000000000000E+20
 30
1.000000000000000E+20
  9
$PEXTMAX
 10
-1.000000000000000E+20
 20
-1.000000000000000E+20
 30
-1.000000000000000E+20
  9
$PLIMMIN
 10
0.0
 20
0.0
  9
$PLIMMAX
 10
420.0
 20
297.0
  9
$UNITMODE
 70
     0
  9
$VISRETAIN
 70
     1
  9
$PLINEGEN
 70
     0
  9
$PSLTSCALE
 70
     1
  0
ENDSEC
  0
SECTION
  2
TABLES
  0
TABLE
  2
VPORT
 70
     1
  0
VPORT
  2
*ACTIVE
 70
     0
 10
0.0
 20
0.0
 11
1.0
 21
1.0
 12
1824.168646019563
 22
-257.3570919071301
 13
0.0
 23
0.0
 14
10.0
 24
10.0
 15
10.0
 25
10.0
 16
0.0
 26
0.0
 36
1.0
 17
0.0
 27
0.0
 37
0.0
 40
3440.903899850526
 41
1.664827586206897
 42
50.0
 43
0.0
 44
0.0
 50
0.0
 51
0.0
 71
    16
 72
  1000
 73
     1
 74
     1
 75
     0
 76
     0
 77
     0
 78
     0
  0
ENDTAB
  0
TABLE
  2
LTYPE
 70
     1
  0
LTYPE
  2
CONTINUOUS
 70
     0
  3
Solid line
 72
    65
 73
     0
 40
0.0
  0
ENDTAB
  0
TABLE
  2
LAYER
 70
     3
  0
LAYER
  2
0
 70
     0
 62
     7
  6
CONTINUOUS
  0
LAYER
  2
MASSE
 70
     0
 62
     3
  6
CONTINUOUS
  0
LAYER
  2
DEFPOINTS
 70
     0
 62
     7
  6
CONTINUOUS
  0
ENDTAB
  0
TABLE
  2
STYLE
 70
     1
  0
STYLE
  2
STANDARD
 70
     0
 40
0.0
 41
1.0
 50
0.0
 71
     0
 42
2.5
  3
txt
  4

  0
ENDTAB
  0
TABLE
  2
VIEW
 70
     0
  0
ENDTAB
  0
TABLE
  2
UCS
 70
     0
  0
ENDTAB
  0
TABLE
  2
APPID
 70
     1
  0
APPID
  2
ACAD
 70
     0
  0
ENDTAB
  0
TABLE
  2
DIMSTYLE
 70
     2
  0
DIMSTYLE
  2
STANDARD
 70
     0
  3

  4

  5

  6

  7

 40
1.0
 41
0.18
 42
0.0625
 43
0.38
 44
0.18
 45
0.0
 46
0.0
 47
0.0
 48
0.0
140
0.18
141
0.09
142
0.0
143
25.4
144
1.0
145
0.0
146
1.0
147
0.09
 71
     0
 72
     0
 73
     1
 74
     1
 75
     0
 76
     0
 77
     0
 78
     0
170
     0
171
     2
172
     0
173
     0
174
     0
175
     0
176
     0
177
     0
178
     0
  0
DIMSTYLE
  2
ISO-25
 70
     0
  3

  4

  5

  6

  7

 40
1.0
 41
2.5
 42
0.625
 43
3.75
 44
1.25
 45
0.0
 46
0.0
 47
0.0
 48
0.0
140
2.5
141
2.5
142
0.0
143
0.03937007874016
144
1.0
145
0.0
146
1.0
147
0.625
 71
     0
 72
     0
 73
     0
 74
     0
 75
     0
 76
     0
 77
     1
 78
     8
170
     0
171
     3
172
     1
173
     0
174
     0
175
     0
176
     0
177
     0
178
     0
  0
ENDTAB
  0
ENDSEC
  0
SECTION
  2
BLOCKS
  0
BLOCK
  8
0
  2
$MODEL_SPACE
 70
     0
 10
0.0
 20
0.0
 30
0.0
  3
$MODEL_SPACE
  1

  0
ENDBLK
  5
21
  8
0
  0
BLOCK
 67
     1
  8
0
  2
$PAPER_SPACE
 70
     0
 10
0.0
 20
0.0
 30
0.0
  3
$PAPER_SPACE
  1

  0
ENDBLK
  5
76
 67
     1
  8
0
  0
BLOCK
  8
0
  2
WEICHEFL
 70
     0
 10
0.0
 20
0.0
 30
0.0
  3
WEICHEFL
  1

  0
POLYLINE
  5
BA
  8
0
 66
     1
 10
0.0
 20
0.0
 30
0.0
 40
9.0
 41
9.0
  0
VERTEX
  5
797
  8
0
 10
0.0
 20
16.5
 30
0.0
  0
VERTEX
  5
798
  8
0
 10
61.57883832488687
 20
0.0
 30
0.0
  0
SEQEND
  5
796
  8
0
  0
POLYLINE
  5
BB
  8
0
 66
     1
 10
0.0
 20
0.0
 30
0.0
 40
9.0
 41
9.0
  0
VERTEX
  5
79A
  8
0
 10
0.0
 20
0.0
 30
0.0
  0
VERTEX
  5
79B
  8
0
 10
111.0
 20
0.0
 30
0.0
  0
SEQEND
  5
799
  8
0
  0
ENDBLK
  5
569
  8
0
  0
BLOCK
  8
0
  2
W123
 70
     0
 10
0.0
 20
0.0
 30
0.0
  3
W123
  1

  0
POLYLINE
  5
148
  8
0
 66
     1
 10
0.0
 20
0.0
 30
0.0
 40
9.0
 41
9.0
  0
VERTEX
  5
79D
  8
0
 10
0.0
 20
0.0
 30
0.0
  0
VERTEX
  5
79E
  8
0
 10
123.0
 20
0.0
 30
0.0
  0
SEQEND
  5
79C
  8
0
  0
POLYLINE
  5
149
  8
0
 66
     1
 10
0.0
 20
0.0
 30
0.0
 40
9.0
 41
9.0
  0
VERTEX
  5
7A0
  8
0
 10
123.0
 20
12.5
 30
0.0
  0
VERTEX
  5
7A1
  8
0
 10
52.10897725477864
 20
0.0
 30
0.0
  0
SEQEND
  5
79F
  8
0
  0
ENDBLK
  5
56B
  8
0
  0
BLOCK
  8
0
  2
WEICHE123
 70
     0
 10
0.0
 20
0.0
 30
0.0
  3
WEICHE123
  1

  0
INSERT
  5
14D
  8
0
  2
W123
 10
0.0
 20
0.0
 30
0.0
  0
ENDBLK
  5
56D
  8
0
  0
BLOCK
  8
0
  2
*D4
 70
     1
 10
0.0
 20
0.0
 30
0.0
  3
*D4
  1

  0
POINT
  5
2C1
  8
DEFPOINTS
  6
BYBLOCK
 62
     0
 10
2860.0
 20
-390.0
 30
0.0
  0
POINT
  5
2C2
  8
DEFPOINTS
  6
BYBLOCK
 62
     0
 10
3860.0
 20
-390.0
 30
0.0
  0
LINE
  5
2C3
  8
0
  6
BYBLOCK
 62
     0
 10
2860.0
 20
-390.625
 30
0.0
 11
2860.0
 21
-503.2683489341642
 31
0.0
  0
LINE
  5
2C4
  8
0
  6
BYBLOCK
 62
     0
 10
3860.0
 20
-390.625
 30
0.0
 11
3860.0
 21
-503.2683489341642
 31
0.0
  0
LINE
  5
2C5
  8
0
  6
BYBLOCK
 62
     0
 10
2910.0
 20
-502.0183489341642
 30
0.0
 11
3810.0
 21
-502.0183489341642
 31
0.0
  0
SOLID
  5
2C6
  8
0
  6
BYBLOCK
 62
     0
 10
2860.0
 20
-502.0183489341642
 30
0.0
 11
2910.0
 21
-510.3516822674993
 31
0.0
 12
2910.0
 22
-493.6850156008292
 32
0.0
 13
2910.0
 23
-493.6850156008292
 33
0.0
  0
SOLID
  5
2C7
  8
0
  6
BYBLOCK
 62
     0
 10
3860.0
 20
-502.0183489341642
 30
0.0
 11
3810.0
 21
-510.3516822674993
 31
0.0
 12
3810.0
 22
-493.6850156008292
 32
0.0
 13
3810.0
 23
-493.6850156008292
 33
0.0
  0
TEXT
  5
2C8
  8
0
  6
BYBLOCK
 62
     0
 10
3289.25
 20
-501.3933489341642
 30
0.0
 40
50.0
  1
1000
  0
ENDBLK
  5
56F
  8
MASSE
  0
BLOCK
  8
0
  2
*D5
 70
     1
 10
0.0
 20
0.0
 30
0.0
  3
*D5
  1

  0
POINT
  5
2CD
  8
DEFPOINTS
  6
BYBLOCK
 62
     0
 10
1860.0
 20
-390.0
 30
0.0
  0
POINT
  5
2CE
  8
DEFPOINTS
  6
BYBLOCK
 62
     0
 10
2860.0
 20
-390.625
 30
0.0
  0
LINE
  5
2CF
  8
0
  6
BYBLOCK
 62
     0
 10
1860.0
 20
-390.625
 30
0.0
 11
1860.0
 21
-503.2683489341642
 31
0.0
  0
LINE
  5
2D0
  8
0
  6
BYBLOCK
 62
     0
 10
2860.0
 20
-391.25
 30
0.0
 11
2860.0
 21
-503.2683489341642
 31
0.0
  0
LINE
  5
2D1
  8
0
  6
BYBLOCK
 62
     0
 10
1910.0
 20
-502.0183489341642
 30
0.0
 11
2810.0
 21
-502.0183489341642
 31
0.0
  0
SOLID
  5
2D2
  8
0
  6
BYBLOCK
 62
     0
 10
1860.0
 20
-502.0183489341642
 30
0.0
 11
1910.0
 21
-510.3516822674993
 31
0.0
 12
1910.0
 22
-493.6850156008292
 32
0.0
 13
1910.0
 23
-493.6850156008292
 33
0.0
  0
SOLID
  5
2D3
  8
0
  6
BYBLOCK
 62
     0
 10
2860.0
 20
-502.0183489341642
 30
0.0
 11
2810.0
 21
-510.3516822674993
 31
0.0
 12
2810.0
 22
-493.6850156008292
 32
0.0
 13
2810.0
 23
-493.6850156008292
 33
0.0
  0
TEXT
  5
2D4
  8
0
  6
BYBLOCK
 62
     0
 10
2289.25
 20
-501.3933489341642
 30
0.0
 40
50.0
  1
1000
  0
ENDBLK
  5
571
  8
MASSE
  0
BLOCK
  8
0
  2
*D6
 70
     1
 10
0.0
 20
0.0
 30
0.0
  3
*D6
  1

  0
POINT
  5
2D9
  8
DEFPOINTS
  6
BYBLOCK
 62
     0
 10
860.0
 20
-390.0
 30
0.0
  0
POINT
  5
2DA
  8
DEFPOINTS
  6
BYBLOCK
 62
     0
 10
1860.0
 20
-390.625
 30
0.0
  0
LINE
  5
2DB
  8
0
  6
BYBLOCK
 62
     0
 10
860.0
 20
-390.625
 30
0.0
 11
860.0
 21
-503.2683489341642
 31
0.0
  0
LINE
  5
2DC
  8
0
  6
BYBLOCK
 62
     0
 10
1860.0
 20
-391.25
 30
0.0
 11
1860.0
 21
-503.2683489341642
 31
0.0
  0
LINE
  5
2DD
  8
0
  6
BYBLOCK
 62
     0
 10
910.0
 20
-502.0183489341642
 30
0.0
 11
1810.0
 21
-502.0183489341642
 31
0.0
  0
SOLID
  5
2DE
  8
0
  6
BYBLOCK
 62
     0
 10
860.0
 20
-502.0183489341642
 30
0.0
 11
910.0
 21
-510.3516822674993
 31
0.0
 12
910.0
 22
-493.6850156008292
 32
0.0
 13
910.0
 23
-493.6850156008292
 33
0.0
  0
SOLID
  5
2DF
  8
0
  6
BYBLOCK
 62
     0
 10
1860.0
 20
-502.0183489341642
 30
0.0
 11
1810.0
 21
-510.3516822674993
 31
0.0
 12
1810.0
 22
-493.6850156008292
 32
0.0
 13
1810.0
 23
-493.6850156008292
 33
0.0
  0
TEXT
  5
2E0
  8
0
  6
BYBLOCK
 62
     0
 10
1289.25
 20
-501.3933489341642
 30
0.0
 40
50.0
  1
1000
  0
ENDBLK
  5
573
  8
MASSE
  0
BLOCK
  8
0
  2
*D7
 70
     1
 10
0.0
 20
0.0
 30
0.0
  3
*D7
  1

  0
POINT
  5
2E5
  8
DEFPOINTS
  6
BYBLOCK
 62
     0
 10
265.0
 20
-390.0
 30
0.0
  0
POINT
  5
2E6
  8
DEFPOINTS
  6
BYBLOCK
 62
     0
 10
860.0
 20
-390.0
 30
0.0
  0
LINE
  5
2E7
  8
0
  6
BYBLOCK
 62
     0
 10
265.0
 20
-390.625
 30
0.0
 11
265.0
 21
-504.5183489341642
 31
0.0
  0
LINE
  5
2E8
  8
0
  6
BYBLOCK
 62
     0
 10
860.0
 20
-390.625
 30
0.0
 11
860.0
 21
-504.5183489341642
 31
0.0
  0
LINE
  5
2E9
  8
0
  6
BYBLOCK
 62
     0
 10
315.0
 20
-503.2683489341642
 30
0.0
 11
810.0
 21
-503.2683489341642
 31
0.0
  0
SOLID
  5
2EA
  8
0
  6
BYBLOCK
 62
     0
 10
265.0
 20
-503.2683489341642
 30
0.0
 11
315.0
 21
-511.6016822674993
 31
0.0
 12
315.0
 22
-494.9350156008292
 32
0.0
 13
315.0
 23
-494.9350156008292
 33
0.0
  0
SOLID
  5
2EB
  8
0
  6
BYBLOCK
 62
     0
 10
860.0
 20
-503.2683489341642
 30
0.0
 11
810.0
 21
-511.6016822674993
 31
0.0
 12
810.0
 22
-494.9350156008292
 32
0.0
 13
810.0
 23
-494.9350156008292
 33
0.0
  0
TEXT
  5
2EC
  8
0
  6
BYBLOCK
 62
     0
 10
495.75
 20
-502.6433489341642
 30
0.0
 40
50.0
  1
595
  0
ENDBLK
  5
575
  8
MASSE
  0
BLOCK
  8
0
  2
*D8
 70
     1
 10
0.0
 20
0.0
 30
0.0
  3
*D8
  1

  0
POINT
  5
2F1
  8
DEFPOINTS
  6
BYBLOCK
 62
     0
 10
20.0
 20
-635.0
 30
0.0
  0
POINT
  5
2F2
  8
DEFPOINTS
  6
BYBLOCK
 62
     0
 10
20.0
 20
-993.3679121828036
 30
0.0
  0
LINE
  5
2F3
  8
0
  6
BYBLOCK
 62
     0
 10
20.625
 20
-635.0
 30
0.0
 11
113.3718356788451
 21
-635.0
 31
0.0
  0
LINE
  5
2F4
  8
0
  6
BYBLOCK
 62
     0
 10
20.625
 20
-993.3679121828036
 30
0.0
 11
113.3718356788451
 21
-993.3679121828036
 31
0.0
  0
LINE
  5
2F5
  8
0
  6
BYBLOCK
 62
     0
 10
112.1218356788451
 20
-685.0
 30
0.0
 11
112.1218356788451
 21
-943.3679121828036
 31
0.0
  0
SOLID
  5
2F6
  8
0
  6
BYBLOCK
 62
     0
 10
112.1218356788451
 20
-635.0
 30
0.0
 11
103.7885023455101
 21
-685.0
 31
0.0
 12
120.4551690121801
 22
-685.0
 32
0.0
 13
120.4551690121801
 23
-685.0
 33
0.0
  0
SOLID
  5
2F7
  8
0
  6
BYBLOCK
 62
     0
 10
112.1218356788451
 20
-993.3679121828036
 30
0.0
 11
103.7885023455101
 21
-943.3679121828036
 31
0.0
 12
120.4551690121801
 22
-943.3679121828036
 32
0.0
 13
120.4551690121801
 23
-943.3679121828036
 33
0.0
  0
TEXT
  5
2F8
  8
0
  6
BYBLOCK
 62
     0
 10
111.4968356788451
 20
-880.9339560914018
 30
0.0
 40
50.0
  1
358
 50
90.0
  0
ENDBLK
  5
577
  8
MASSE
  0
BLOCK
  8
0
  2
*D9
 70
     1
 10
0.0
 20
0.0
 30
0.0
  3
*D9
  1

  0
POINT
  5
2FD
  8
DEFPOINTS
  6
BYBLOCK
 62
     0
 10
860.0
 20
0.0
 30
0.0
  0
POINT
  5
2FE
  8
DEFPOINTS
  6
BYBLOCK
 62
     0
 10
0.0
 20
0.0
 30
0.0
  0
LINE
  5
2FF
  8
0
  6
BYBLOCK
 62
     0
 10
860.0
 20
0.625
 30
0.0
 11
860.0
 21
74.16361317053008
 31
0.0
  0
LINE
  5
300
  8
0
  6
BYBLOCK
 62
     0
 10
0.0
 20
0.625
 30
0.0
 11
0.0
 21
74.16361317053008
 31
0.0
  0
LINE
  5
301
  8
0
  6
BYBLOCK
 62
     0
 10
810.0
 20
72.91361317053008
 30
0.0
 11
50.0
 21
72.91361317053008
 31
0.0
  0
SOLID
  5
302
  8
0
  6
BYBLOCK
 62
     0
 10
860.0
 20
72.91361317053008
 30
0.0
 11
810.0
 21
81.24694650386509
 31
0.0
 12
810.0
 22
64.58027983719508
 32
0.0
 13
810.0
 23
64.58027983719508
 33
0.0
  0
SOLID
  5
303
  8
0
  6
BYBLOCK
 62
     0
 10
0.0
 20
72.91361317053008
 30
0.0
 11
50.0
 21
81.24694650386509
 31
0.0
 12
50.0
 22
64.58027983719508
 32
0.0
 13
50.0
 23
64.58027983719508
 33
0.0
  0
TEXT
  5
304
  8
0
  6
BYBLOCK
 62
     0
 10
367.5
 20
73.53861317053008
 30
0.0
 40
50.0
  1
860
  0
ENDBLK
  5
579
  8
MASSE
  0
BLOCK
  8
0
  2
*D10
 70
     1
 10
0.0
 20
0.0
 30
0.0
  3
*D10
  1

  0
POINT
  5
309
  8
DEFPOINTS
  6
BYBLOCK
 62
     0
 10
0.0
 20
0.0
 30
0.0
  0
POINT
  5
30A
  8
DEFPOINTS
  6
BYBLOCK
 62
     0
 10
0.0
 20
-280.0
 30
0.0
  0
LINE
  5
30B
  8
0
  6
BYBLOCK
 62
     0
 10
-0.625
 20
0.0
 30
0.0
 11
-71.32797342825323
 21
0.0
 31
0.0
  0
LINE
  5
30C
  8
0
  6
BYBLOCK
 62
     0
 10
-0.625
 20
-280.0
 30
0.0
 11
-71.32797342825323
 21
-280.0
 31
0.0
  0
LINE
  5
30D
  8
0
  6
BYBLOCK
 62
     0
 10
-70.07797342825323
 20
-50.0
 30
0.0
 11
-70.07797342825323
 21
-230.0
 31
0.0
  0
SOLID
  5
30E
  8
0
  6
BYBLOCK
 62
     0
 10
-70.07797342825323
 20
0.0
 30
0.0
 11
-78.41130676158824
 21
-50.0
 31
0.0
 12
-61.74464009491823
 22
-50.0
 32
0.0
 13
-61.74464009491823
 23
-50.0
 33
0.0
  0
SOLID
  5
30F
  8
0
  6
BYBLOCK
 62
     0
 10
-70.07797342825323
 20
-280.0
 30
0.0
 11
-78.41130676158824
 21
-230.0
 31
0.0
 12
-61.74464009491823
 22
-230.0
 32
0.0
 13
-61.74464009491823
 23
-230.0
 33
0.0
  0
TEXT
  5
310
  8
0
  6
BYBLOCK
 62
     0
 10
-70.70297342825326
 20
-202.5
 30
0.0
 40
50.0
  1
280
 50
90.0
  0
ENDBLK
  5
57B
  8
MASSE
  0
BLOCK
  8
0
  2
*D11
 70
     1
 10
0.0
 20
0.0
 30
0.0
  3
*D11
  1

  0
POINT
  5
315
  8
DEFPOINTS
  6
BYBLOCK
 62
     0
 10
-370.0
 20
-280.0
 30
0.0
  0
POINT
  5
316
  8
DEFPOINTS
  6
BYBLOCK
 62
     0
 10
-0.625
 20
-280.0
 30
0.0
  0
LINE
  5
317
  8
0
  6
BYBLOCK
 62
     0
 10
-370.0
 20
-279.375
 30
0.0
 11
-370.0
 21
74.16361317053008
 31
0.0
  0
LINE
  5
318
  8
0
  6
BYBLOCK
 62
     0
 10
-0.625
 20
-279.375
 30
0.0
 11
-0.625
 21
74.16361317053008
 31
0.0
  0
LINE
  5
319
  8
0
  6
BYBLOCK
 62
     0
 10
-320.0
 20
72.91361317053008
 30
0.0
 11
-50.625
 21
72.91361317053008
 31
0.0
  0
SOLID
  5
31A
  8
0
  6
BYBLOCK
 62
     0
 10
-370.0
 20
72.91361317053008
 30
0.0
 11
-320.0
 21
64.58027983719506
 31
0.0
 12
-320.0
 22
81.2469465038651
 32
0.0
 13
-320.0
 23
81.2469465038651
 33
0.0
  0
SOLID
  5
31B
  8
0
  6
BYBLOCK
 62
     0
 10
-0.625
 20
72.91361317053008
 30
0.0
 11
-50.625
 21
64.58027983719506
 31
0.0
 12
-50.625
 22
81.2469465038651
 32
0.0
 13
-50.625
 23
81.2469465038651
 33
0.0
  0
TEXT
  5
31C
  8
0
  6
BYBLOCK
 62
     0
 10
-252.0625
 20
73.53861317053008
 30
0.0
 40
50.0
  1
369
  0
ENDBLK
  5
57D
  8
MASSE
  0
BLOCK
  8
0
  2
*D12
 70
     1
 10
0.0
 20
0.0
 30
0.0
  3
*D12
  1

  0
POINT
  5
321
  8
DEFPOINTS
  6
BYBLOCK
 62
     0
 10
-370.0
 20
-280.0
 30
0.0
  0
POINT
  5
322
  8
DEFPOINTS
  6
BYBLOCK
 62
     0
 10
-370.0
 20
-820.0
 30
0.0
  0
LINE
  5
323
  8
0
  6
BYBLOCK
 62
     0
 10
-370.625
 20
-280.0
 30
0.0
 11
-486.4931668127539
 21
-280.0
 31
0.0
  0
LINE
  5
324
  8
0
  6
BYBLOCK
 62
     0
 10
-370.625
 20
-820.0
 30
0.0
 11
-486.4931668127539
 21
-820.0
 31
0.0
  0
LINE
  5
325
  8
0
  6
BYBLOCK
 62
     0
 10
-485.2431668127539
 20
-330.0
 30
0.0
 11
-485.2431668127539
 21
-770.0
 31
0.0
  0
SOLID
  5
326
  8
0
  6
BYBLOCK
 62
     0
 10
-485.2431668127539
 20
-280.0
 30
0.0
 11
-493.576500146089
 21
-330.0
 31
0.0
 12
-476.9098334794189
 22
-330.0
 32
0.0
 13
-476.9098334794189
 23
-330.0
 33
0.0
  0
SOLID
  5
327
  8
0
  6
BYBLOCK
 62
     0
 10
-485.2431668127539
 20
-820.0
 30
0.0
 11
-493.576500146089
 21
-770.0
 31
0.0
 12
-476.9098334794189
 22
-770.0
 32
0.0
 13
-476.9098334794189
 23
-770.0
 33
0.0
  0
TEXT
  5
328
  8
0
  6
BYBLOCK
 62
     0
 10
-485.8681668127541
 20
-612.5
 30
0.0
 40
50.0
  1
540
 50
90.0
  0
ENDBLK
  5
57F
  8
MASSE
  0
BLOCK
  8
0
  2
*D13
 70
     1
 10
0.0
 20
0.0
 30
0.0
  3
*D13
  1

  0
POINT
  5
32D
  8
DEFPOINTS
  6
BYBLOCK
 62
     0
 10
-370.0
 20
-820.0
 30
0.0
  0
POINT
  5
32E
  8
DEFPOINTS
  6
BYBLOCK
 62
     0
 10
-467.0
 20
-1680.0
 30
0.0
  0
LINE
  5
32F
  8
0
  6
BYBLOCK
 62
     0
 10
-370.625
 20
-820.0
 30
0.0
 11
-571.2976774904777
 21
-820.0
 31
0.0
  0
LINE
  5
330
  8
0
  6
BYBLOCK
 62
     0
 10
-467.625
 20
-1680.0
 30
0.0
 11
-571.2976774904777
 21
-1680.0
 31
0.0
  0
LINE
  5
331
  8
0
  6
BYBLOCK
 62
     0
 10
-570.0476774904777
 20
-870.0
 30
0.0
 11
-570.0476774904777
 21
-1630.0
 31
0.0
  0
SOLID
  5
332
  8
0
  6
BYBLOCK
 62
     0
 10
-570.0476774904777
 20
-820.0
 30
0.0
 11
-578.3810108238126
 21
-870.0
 31
0.0
 12
-561.7143441571427
 22
-870.0
 32
0.0
 13
-561.7143441571427
 23
-870.0
 33
0.0
  0
SOLID
  5
333
  8
0
  6
BYBLOCK
 62
     0
 10
-570.0476774904777
 20
-1680.0
 30
0.0
 11
-578.3810108238126
 21
-1630.0
 31
0.0
 12
-561.7143441571427
 22
-1630.0
 32
0.0
 13
-561.7143441571427
 23
-1630.0
 33
0.0
  0
TEXT
  5
334
  8
0
  6
BYBLOCK
 62
     0
 10
-570.6726774904778
 20
-1312.5
 30
0.0
 40
50.0
  1
860
 50
90.0
  0
ENDBLK
  5
581
  8
MASSE
  0
BLOCK
  8
0
  2
*D14
 70
     1
 10
0.0
 20
0.0
 30
0.0
  3
*D14
  1

  0
POINT
  5
339
  8
DEFPOINTS
  6
BYBLOCK
 62
     0
 10
-370.625
 20
-820.0
 30
0.0
  0
POINT
  5
33A
  8
DEFPOINTS
  6
BYBLOCK
 62
     0
 10
-467.625
 20
-1680.0
 30
0.0
  0
LINE
  5
33B
  8
0
  6
BYBLOCK
 62
     0
 10
-370.625
 20
-820.625
 30
0.0
 11
-370.625
 21
-1794.69526804011
 31
0.0
  0
LINE
  5
33C
  8
0
  6
BYBLOCK
 62
     0
 10
-467.625
 20
-1680.625
 30
0.0
 11
-467.625
 21
-1794.69526804011
 31
0.0
  0
LINE
  5
33D
  8
0
  6
BYBLOCK
 62
     0
 10
-320.625
 20
-1793.44526804011
 30
0.0
 11
-270.625
 21
-1793.44526804011
 31
0.0
  0
SOLID
  5
33E
  8
0
  6
BYBLOCK
 62
     0
 10
-370.625
 20
-1793.44526804011
 30
0.0
 11
-320.625
 21
-1785.111934706775
 31
0.0
 12
-320.625
 22
-1801.778601373444
 32
0.0
 13
-320.625
 23
-1801.778601373444
 33
0.0
  0
LINE
  5
33F
  8
0
  6
BYBLOCK
 62
     0
 10
-517.625
 20
-1793.44526804011
 30
0.0
 11
-567.625
 21
-1793.44526804011
 31
0.0
  0
SOLID
  5
340
  8
0
  6
BYBLOCK
 62
     0
 10
-467.625
 20
-1793.44526804011
 30
0.0
 11
-517.625
 21
-1785.111934706775
 31
0.0
 12
-517.625
 22
-1801.778601373444
 32
0.0
 13
-517.625
 23
-1801.778601373444
 33
0.0
  0
TEXT
  5
341
  8
0
  6
BYBLOCK
 62
     0
 10
-460.875
 20
-1792.82026804011
 30
0.0
 40
50.0
  1
97
  0
ENDBLK
  5
583
  8
MASSE
  0
BLOCK
  8
0
  2
*D15
 70
     1
 10
0.0
 20
0.0
 30
0.0
  3
*D15
  1

  0
POINT
  5
346
  8
DEFPOINTS
  6
BYBLOCK
 62
     0
 10
-467.625
 20
-1680.625
 30
0.0
  0
POINT
  5
347
  8
DEFPOINTS
  6
BYBLOCK
 62
     0
 10
-57.0
 20
-1680.0
 30
0.0
  0
LINE
  5
348
  8
0
  6
BYBLOCK
 62
     0
 10
-467.625
 20
-1681.25
 30
0.0
 11
-467.625
 21
-1876.754810394551
 31
0.0
  0
LINE
  5
349
  8
0
  6
BYBLOCK
 62
     0
 10
-57.0
 20
-1680.625
 30
0.0
 11
-57.0
 21
-1876.754810394551
 31
0.0
  0
LINE
  5
34A
  8
0
  6
BYBLOCK
 62
     0
 10
-417.625
 20
-1875.504810394551
 30
0.0
 11
-107.0
 21
-1875.504810394551
 31
0.0
  0
SOLID
  5
34B
  8
0
  6
BYBLOCK
 62
     0
 10
-467.625
 20
-1875.504810394551
 30
0.0
 11
-417.625
 21
-1883.838143727886
 31
0.0
 12
-417.625
 22
-1867.171477061216
 32
0.0
 13
-417.625
 23
-1867.171477061216
 33
0.0
  0
SOLID
  5
34C
  8
0
  6
BYBLOCK
 62
     0
 10
-57.0
 20
-1875.504810394551
 30
0.0
 11
-107.0
 21
-1883.838143727886
 31
0.0
 12
-107.0
 22
-1867.171477061216
 32
0.0
 13
-107.0
 23
-1867.171477061216
 33
0.0
  0
TEXT
  5
34D
  8
0
  6
BYBLOCK
 62
     0
 10
-312.3125
 20
-1874.879810394551
 30
0.0
 40
50.0
  1
411
  0
ENDBLK
  5
585
  8
MASSE
  0
BLOCK
  8
0
  2
*D16
 70
     1
 10
0.0
 20
0.0
 30
0.0
  3
*D16
  1

  0
POINT
  5
352
  8
DEFPOINTS
  6
BYBLOCK
 62
     0
 10
265.0
 20
-390.0
 30
0.0
  0
POINT
  5
353
  8
DEFPOINTS
  6
BYBLOCK
 62
     0
 10
20.625
 20
-635.0
 30
0.0
  0
LINE
  5
354
  8
0
  6
BYBLOCK
 62
     0
 10
265.4425057984812
 20
-390.4413769571585
 30
0.0
 11
360.9915151398021
 21
-485.74663882567
 31
0.0
  0
LINE
  5
355
  8
0
  6
BYBLOCK
 62
     0
 10
21.0675057984812
 20
-635.4413769571585
 30
0.0
 11
116.6165151398021
 21
-730.74663882567
 31
0.0
  0
LINE
  5
356
  8
0
  6
BYBLOCK
 62
     0
 10
324.7963469701571
 20
-520.2643487898481
 30
0.0
 11
151.0416601155224
 21
-694.4634210328578
 31
0.0
  0
SOLID
  5
357
  8
0
  6
BYBLOCK
 62
     0
 10
360.1065035428397
 20
-484.863884911353
 30
0.0
 11
318.8962696570735
 21
-514.3793226943998
 31
0.0
 12
330.6964242832408
 22
-526.1493748852963
 32
0.0
 13
330.6964242832408
 23
-526.1493748852963
 33
0.0
  0
SOLID
  5
358
  8
0
  6
BYBLOCK
 62
     0
 10
115.7315035428398
 20
-729.8638849113529
 30
0.0
 11
145.1415828024387
 21
-688.5783949374095
 31
0.0
 12
156.9417374286061
 22
-700.348447128306
 32
0.0
 13
156.9417374286061
 23
-700.348447128306
 33
0.0
  0
TEXT
  5
359
  8
0
  6
BYBLOCK
 62
     0
 10
190.3374387198272
 20
-654.1821272319854
 30
0.0
 40
50.0
  1
346
 50
45.07317464669438
  0
ENDBLK
  5
587
  8
MASSE
  0
BLOCK
  8
0
  2
*D17
 70
     1
 10
0.0
 20
0.0
 30
0.0
  3
*D17
  1

  0
POINT
  5
35E
  8
DEFPOINTS
  6
BYBLOCK
 62
     0
 10
-57.0
 20
-1680.625
 30
0.0
  0
POINT
  5
35F
  8
DEFPOINTS
  6
BYBLOCK
 62
     0
 10
298.0704155516198
 20
-1475.0
 30
0.0
  0
LINE
  5
360
  8
0
  6
BYBLOCK
 62
     0
 10
-56.68678625881348
 20
-1681.16585317077
 30
0.0
 11
-4.325703369294403
 21
-1771.582249330354
 31
0.0
  0
LINE
  5
361
  8
0
  6
BYBLOCK
 62
     0
 10
298.3836292928063
 20
-1475.54085317077
 30
0.0
 11
350.7447121823254
 21
-1565.957249330354
 31
0.0
  0
LINE
  5
362
  8
0
  6
BYBLOCK
 62
     0
 10
38.31612280993089
 20
-1745.443443693891
 30
0.0
 11
306.850031038354
 21
-1589.932642283736
 31
0.0
  0
SOLID
  5
363
  8
0
  6
BYBLOCK
 62
     0
 10
-4.952130851667453
 20
-1770.500542988814
 30
0.0
 11
42.49230602575207
 21
-1752.654819304159
 31
0.0
 12
34.13993959410972
 22
-1738.232068083624
 32
0.0
 13
34.13993959410972
 23
-1738.232068083624
 33
0.0
  0
SOLID
  5
364
  8
0
  6
BYBLOCK
 62
     0
 10
350.1182846999523
 20
-1564.875542988814
 30
0.0
 11
311.0262142541752
 21
-1597.144017894003
 31
0.0
 12
302.6738478225328
 22
-1582.721266673468
 32
0.0
 13
302.6738478225328
 23
-1582.721266673468
 33
0.0
  0
TEXT
  5
365
  8
0
  6
BYBLOCK
 62
     0
 10
125.3238079601217
 20
-1694.334142553034
 30
0.0
 40
50.0
  1
410
 50
30.07558198294868
  0
ENDBLK
  5
589
  8
MASSE
  0
BLOCK
  8
0
  2
*D18
 70
     1
 10
0.0
 20
0.0
 30
0.0
  3
*D18
  1

  0
POINT
  5
36A
  8
DEFPOINTS
  6
BYBLOCK
 62
     0
 10
20.625
 20
-993.3679121828036
 30
0.0
  0
POINT
  5
36B
  8
DEFPOINTS
  6
BYBLOCK
 62
     0
 10
298.0704155516198
 20
-1475.0
 30
0.0
  0
LINE
  5
36C
  8
0
  6
BYBLOCK
 62
     0
 10
21.16656993322312
 20
-993.0559394156769
 30
0.0
 11
143.9957632559992
 21
-922.2998634703336
 31
0.0
  0
LINE
  5
36D
  8
0
  6
BYBLOCK
 62
     0
 10
298.6119854848429
 20
-1474.688027232873
 30
0.0
 11
421.4411788076188
 21
-1403.93195128753
 31
0.0
  0
LINE
  5
36E
  8
0
  6
BYBLOCK
 62
     0
 10
167.8704447596908
 20
-966.2494036624366
 30
0.0
 11
395.4002175710347
 21
-1361.230302163934
 31
0.0
  0
SOLID
  5
36F
  8
0
  6
BYBLOCK
 62
     0
 10
142.912623389553
 20
-922.923809004587
 30
0.0
 11
160.6495123167144
 21
-970.4090405574605
 31
0.0
 12
175.0913772026672
 22
-962.0897667674128
 32
0.0
 13
175.0913772026672
 23
-962.0897667674128
 33
0.0
  0
SOLID
  5
370
  8
0
  6
BYBLOCK
 62
     0
 10
420.3580389411725
 20
-1404.555896821784
 30
0.0
 11
388.1792851280583
 21
-1365.389939058958
 31
0.0
 12
402.6211500140111
 22
-1357.07066526891
 32
0.0
 13
402.6211500140111
 23
-1357.07066526891
 33
0.0
  0
TEXT
  5
371
  8
0
  6
BYBLOCK
 62
     0
 10
248.8582095694519
 20
-1105.588211277829
 30
0.0
 40
50.0
  1
556
 50
299.944205361927
  0
ENDBLK
  5
58B
  8
MASSE
  0
BLOCK
  8
0
  2
*D19
 70
     1
 10
0.0
 20
0.0
 30
0.0
  3
*D19
  1

  0
POINT
  5
376
  8
DEFPOINTS
  6
BYBLOCK
 62
     0
 10
3860.0
 20
0.0
 30
0.0
  0
POINT
  5
377
  8
DEFPOINTS
  6
BYBLOCK
 62
     0
 10
3860.0
 20
-390.0
 30
0.0
  0
LINE
  5
378
  8
0
  6
BYBLOCK
 62
     0
 10
3860.625
 20
0.0
 30
0.0
 11
3980.750528432168
 21
0.0
 31
0.0
  0
LINE
  5
379
  8
0
  6
BYBLOCK
 62
     0
 10
3860.625
 20
-390.0
 30
0.0
 11
3980.750528432168
 21
-390.0
 31
0.0
  0
LINE
  5
37A
  8
0
  6
BYBLOCK
 62
     0
 10
3979.500528432168
 20
-50.0
 30
0.0
 11
3979.500528432168
 21
-340.0
 31
0.0
  0
SOLID
  5
37B
  8
0
  6
BYBLOCK
 62
     0
 10
3979.500528432168
 20
0.0
 30
0.0
 11
3971.167195098833
 21
-50.0
 31
0.0
 12
3987.833861765503
 22
-50.0
 32
0.0
 13
3987.833861765503
 23
-50.0
 33
0.0
  0
SOLID
  5
37C
  8
0
  6
BYBLOCK
 62
     0
 10
3979.500528432168
 20
-390.0
 30
0.0
 11
3971.167195098833
 21
-340.0
 31
0.0
 12
3987.833861765503
 22
-340.0
 32
0.0
 13
3987.833861765503
 23
-340.0
 33
0.0
  0
TEXT
  5
37D
  8
0
  6
BYBLOCK
 62
     0
 10
3978.875528432168
 20
-257.5
 30
0.0
 40
50.0
  1
390
 50
90.0
  0
ENDBLK
  5
58D
  8
MASSE
  0
BLOCK
  8
0
  2
*D20
 70
     1
 10
0.0
 20
0.0
 30
0.0
  3
*D20
  1

  0
POINT
  5
382
  8
DEFPOINTS
  6
BYBLOCK
 62
     0
 10
924.9531207641098
 20
-147.5317814109621
 30
0.0
  0
POINT
  5
383
  8
DEFPOINTS
  6
BYBLOCK
 62
     0
 10
2580.201941323845
 20
-84.63232622969287
 30
0.0
  0
LINE
  5
384
  8
0
  6
BYBLOCK
 62
     0
 10
924.9293878930614
 20
-146.9072321728456
 30
0.0
 11
917.7537617384969
 21
41.92503505253712
 31
0.0
  0
LINE
  5
385
  8
0
  6
BYBLOCK
 62
     0
 10
2580.178208452796
 20
-84.00777699157645
 30
0.0
 11
2573.002582298232
 21
104.8244902338063
 31
0.0
  0
LINE
  5
386
  8
0
  6
BYBLOCK
 62
     0
 10
967.7651665299072
 20
42.57456626017817
 30
0.0
 11
2523.086108991015
 21
101.6767620736996
 31
0.0
  0
SOLID
  5
387
  8
0
  6
BYBLOCK
 62
     0
 10
917.8012274805938
 20
40.67593657630429
 30
0.0
 11
968.081604810553
 21
34.24724308529094
 31
0.0
 12
967.4487282492615
 22
50.90188943506541
 32
0.0
 13
967.4487282492615
 23
50.90188943506541
 33
0.0
  0
SOLID
  5
388
  8
0
  6
BYBLOCK
 62
     0
 10
2573.050048040328
 20
103.5753917575735
 30
0.0
 11
2523.402547271661
 21
93.34943889881235
 31
0.0
 12
2522.769670710369
 22
110.0040852485868
 32
0.0
 13
2522.769670710369
 23
110.0040852485868
 33
0.0
  0
TEXT
  5
389
  8
0
  6
BYBLOCK
 62
     0
 10
1661.962126677059
 20
69.5795018329859
 30
0.0
 40
49.99999999999999
  1
1656
 50
2.176192550525218
 41
0.9999999999999999
  0
ENDBLK
  5
58F
  8
MASSE
  0
BLOCK
  8
0
  2
*D21
 70
     1
 10
0.0
 20
0.0
 30
0.0
  3
*D21
  1

  0
POINT
  5
38E
  8
DEFPOINTS
  6
BYBLOCK
 62
     0
 10
3181.598955469287
 20
-61.77923969216706
 30
0.0
  0
POINT
  5
38F
  8
DEFPOINTS
  6
BYBLOCK
 62
     0
 10
2860.0
 20
-74.00000000000001
 30
0.0
  0
LINE
  5
390
  8
0
  6
BYBLOCK
 62
     0
 10
3181.575222598239
 20
-61.15469045405065
 30
0.0
 11
3177.704332996515
 21
40.710825380804
 31
0.0
  0
LINE
  5
391
  8
0
  6
BYBLOCK
 62
     0
 10
2859.976267128952
 20
-73.3754507618836
 30
0.0
 11
2856.105377527227
 21
28.49006507297111
 31
0.0
  0
LINE
  5
392
  8
0
  6
BYBLOCK
 62
     0
 10
3127.787859689298
 20
37.56309722069725
 30
0.0
 11
2906.116782318637
 21
29.13959628061218
 31
0.0
  0
SOLID
  5
393
  8
0
  6
BYBLOCK
 62
     0
 10
3177.751798738611
 20
39.46172690457116
 30
0.0
 11
3127.471421408652
 21
45.89042039558451
 31
0.0
 12
3128.104297969944
 22
29.23577404581
 32
0.0
 13
3128.104297969944
 23
29.23577404581
 33
0.0
  0
SOLID
  5
394
  8
0
  6
BYBLOCK
 62
     0
 10
2856.152843269324
 20
27.24096659673828
 30
0.0
 11
2905.800344037992
 21
37.46691945549944
 31
0.0
 12
2906.433220599283
 22
20.81227310572493
 32
0.0
 13
2906.433220599283
 23
20.81227310572493
 33
0.0
  0
TEXT
  5
395
  8
0
  6
BYBLOCK
 62
     0
 10
2950.226729502086
 20
31.44122536079945
 30
0.0
 40
50.0
  1
322
 50
2.176192550525432
  0
ENDBLK
  5
591
  8
MASSE
  0
BLOCK
  8
0
  2
*D22
 70
     1
 10
0.0
 20
0.0
 30
0.0
  3
*D22
  1

  0
POINT
  5
39A
  8
DEFPOINTS
  6
BYBLOCK
 62
     0
 10
2860.0
 20
-230.432402781851
 30
0.0
  0
POINT
  5
39B
  8
DEFPOINTS
  6
BYBLOCK
 62
     0
 10
3211.526878514143
 20
-314.3356236553165
 30
0.0
  0
LINE
  5
39C
  8
0
  6
BYBLOCK
 62
     0
 10
2859.854899488136
 20
-231.0403261663798
 30
0.0
 11
2843.244426244116
 21
-300.6327416818571
 31
0.0
  0
LINE
  5
39D
  8
0
  6
BYBLOCK
 62
     0
 10
3211.381778002279
 20
-314.9435470398453
 30
0.0
 11
3194.771304758259
 21
-384.5359625553228
 31
0.0
  0
LINE
  5
39E
  8
0
  6
BYBLOCK
 62
     0
 10
2892.168498030143
 20
-311.0249358618978
 30
0.0
 11
3146.427635019687
 21
-371.7120748371672
 31
0.0
  0
SOLID
  5
39F
  8
0
  6
BYBLOCK
 62
     0
 10
2843.534627267844
 20
-299.4168949127997
 30
0.0
 11
2890.233824538626
 21
-319.1305809889493
 31
0.0
 12
2894.10317152166
 22
-302.9192907348462
 32
0.0
 13
2894.10317152166
 23
-302.9192907348462
 33
0.0
  0
SOLID
  5
3A0
  8
0
  6
BYBLOCK
 62
     0
 10
3195.061505781986
 20
-383.3201157862653
 30
0.0
 11
3144.49296152817
 21
-379.8177199642187
 31
0.0
 12
3148.362308511204
 22
-363.6064297101156
 32
0.0
 13
3148.362308511204
 23
-363.6064297101156
 33
0.0
  0
TEXT
  5
3A1
  8
0
  6
BYBLOCK
 62
     0
 10
2962.7847075987
 20
-327.2372142593045
 30
0.0
 40
50.0
  1
361
 50
346.5756783527303
  0
ENDBLK
  5
593
  8
MASSE
  0
BLOCK
  8
0
  2
*D23
 70
     1
 10
0.0
 20
0.0
 30
0.0
  3
*D23
  1

  0
POINT
  5
3A6
  8
DEFPOINTS
  6
BYBLOCK
 62
     0
 10
1145.539914551706
 20
-111.6543195808877
 30
0.0
  0
POINT
  5
3A7
  8
DEFPOINTS
  6
BYBLOCK
 62
     0
 10
2356.723362770971
 20
-69.85925725106873
 30
0.0
  0
LINE
  5
3A8
  8
0
  6
BYBLOCK
 62
     0
 10
1145.5183601165
 20
-111.0296913664089
 30
0.0
 11
1142.017277986507
 21
-9.571469023275983
 31
0.0
  0
LINE
  5
3A9
  8
0
  6
BYBLOCK
 62
     0
 10
2356.701808335765
 20
-69.23462903658994
 30
0.0
 11
2353.200726205772
 21
32.22359330654295
 31
0.0
  0
LINE
  5
3AA
  8
0
  6
BYBLOCK
 62
     0
 10
1192.030644015221
 20
-9.096370635761312
 30
0.0
 11
2303.273577917881
 21
29.24998206111315
 31
0.0
  0
SOLID
  5
3AB
  8
0
  6
BYBLOCK
 62
     0
 10
1142.060386856919
 20
-10.82072545223355
 30
0.0
 11
1192.318036484633
 21
-17.42474682881344
 31
0.0
 12
1191.743251545809
 22
-0.7679944427091797
 32
0.0
 13
1191.743251545809
 23
-0.7679944427091797
 33
0.0
  0
SOLID
  5
3AC
  8
0
  6
BYBLOCK
 62
     0
 10
2353.243835076184
 20
30.97433687758539
 30
0.0
 11
2303.560970387293
 21
20.92160586806102
 31
0.0
 12
2302.986185448469
 22
37.57835825416528
 32
0.0
 13
2302.986185448469
 23
37.57835825416528
 33
0.0
  0
TEXT
  5
3AD
  8
0
  6
BYBLOCK
 62
     0
 10
1672.4253195081
 20
8.106279928363982
 30
0.0
 40
50.0
  1
1212
 50
1.976356966030738
  0
ENDBLK
  5
595
  8
MASSE
  0
BLOCK
  8
0
  2
*D24
 70
     1
 10
0.0
 20
0.0
 30
0.0
  3
*D24
  1

  0
POINT
  5
4E8
  8
DEFPOINTS
  6
BYBLOCK
 62
     0
 10
3860.0
 20
-390.0
 30
0.0
  0
POINT
  5
4E9
  8
DEFPOINTS
  6
BYBLOCK
 62
     0
 10
4060.000000000003
 20
-225.0
 30
0.0
  0
LINE
  5
4EA
  8
0
  6
BYBLOCK
 62
     0
 10
3860.0
 20
-390.625
 30
0.0
 11
3860.0
 21
-502.895874494979
 31
0.0
  0
LINE
  5
4EB
  8
0
  6
BYBLOCK
 62
     0
 10
4060.000000000003
 20
-225.625
 30
0.0
 11
4060.000000000003
 21
-502.895874494979
 31
0.0
  0
LINE
  5
4EC
  8
0
  6
BYBLOCK
 62
     0
 10
3810.0
 20
-501.645874494979
 30
0.0
 11
3760.0
 21
-501.645874494979
 31
0.0
  0
SOLID
  5
4ED
  8
0
  6
BYBLOCK
 62
     0
 10
3860.0
 20
-501.645874494979
 30
0.0
 11
3810.0
 21
-509.979207828314
 31
0.0
 12
3810.0
 22
-493.312541161644
 32
0.0
 13
3810.0
 23
-493.312541161644
 33
0.0
  0
LINE
  5
4EE
  8
0
  6
BYBLOCK
 62
     0
 10
4110.000000000003
 20
-501.645874494979
 30
0.0
 11
4160.000000000003
 21
-501.645874494979
 31
0.0
  0
SOLID
  5
4EF
  8
0
  6
BYBLOCK
 62
     0
 10
4060.000000000003
 20
-501.645874494979
 30
0.0
 11
4110.000000000003
 21
-509.979207828314
 31
0.0
 12
4110.000000000003
 22
-493.312541161644
 32
0.0
 13
4110.000000000003
 23
-493.312541161644
 33
0.0
  0
TEXT
  5
4F0
  8
0
  6
BYBLOCK
 62
     0
 10
3901.750000000001
 20
-501.020874494979
 30
0.0
 40
50.0
  1
200
  0
ENDBLK
  5
597
  8
MASSE
  0
BLOCK
  8
0
  2
*D25
 70
     1
 10
0.0
 20
0.0
 30
0.0
  3
*D25
  1

  0
POINT
  5
55A
  8
DEFPOINTS
  6
BYBLOCK
 62
     0
 10
4060.000000000003
 20
-225.0
 30
0.0
  0
POINT
  5
55B
  8
DEFPOINTS
  6
BYBLOCK
 62
     0
 10
4060.000000000003
 20
175.0
 30
0.0
  0
LINE
  5
55C
  8
0
  6
BYBLOCK
 62
     0
 10
4060.625000000003
 20
-225.0
 30
0.0
 11
4147.409910810781
 21
-225.0
 31
0.0
  0
LINE
  5
55D
  8
0
  6
BYBLOCK
 62
     0
 10
4060.625000000003
 20
175.0
 30
0.0
 11
4147.409910810781
 21
175.0
 31
0.0
  0
LINE
  5
55E
  8
0
  6
BYBLOCK
 62
     0
 10
4146.159910810781
 20
-175.0
 30
0.0
 11
4146.159910810781
 21
125.0
 31
0.0
  0
SOLID
  5
55F
  8
0
  6
BYBLOCK
 62
     0
 10
4146.159910810781
 20
-225.0
 30
0.0
 11
4154.493244144116
 21
-175.0
 31
0.0
 12
4137.826577477446
 22
-175.0
 32
0.0
 13
4137.826577477446
 23
-175.0
 33
0.0
  0
SOLID
  5
560
  8
0
  6
BYBLOCK
 62
     0
 10
4146.159910810781
 20
175.0
 30
0.0
 11
4154.493244144116
 21
125.0
 31
0.0
 12
4137.826577477446
 22
125.0
 32
0.0
 13
4137.826577477446
 23
125.0
 33
0.0
  0
TEXT
  5
561
  8
0
  6
BYBLOCK
 62
     0
 10
4145.534910810781
 20
-83.25
 30
0.0
 40
50.0
  1
400
 50
90.0
  0
ENDBLK
  5
599
  8
MASSE
  0
ENDSEC
  0
SECTION
  2
ENTITIES
  0
LINE
  5
31
  8
0
 10
0.0
 20
0.0
 30
0.0
 11
860.0
 21
0.0
 31
0.0
  0
LINE
  5
32
  8
0
 10
860.0
 20
0.0
 30
0.0
 11
860.0
 21
-390.0
 31
0.0
  0
LINE
  5
33
  8
0
 10
860.0
 20
-390.0
 30
0.0
 11
265.0
 21
-390.0
 31
0.0
  0
POLYLINE
  5
34
  8
0
 66
     1
 10
0.0
 20
0.0
 30
0.0
 70
     1
  0
VERTEX
  5
5A5
  8
0
 10
860.0
 20
0.0
 30
0.0
  0
VERTEX
  5
5A6
  8
0
 10
1860.0
 20
0.0
 30
0.0
  0
VERTEX
  5
5A7
  8
0
 10
1860.0
 20
-390.0
 30
0.0
  0
VERTEX
  5
5A8
  8
0
 10
860.0
 20
-390.0
 30
0.0
  0
SEQEND
  5
5A4
  8
0
  0
POLYLINE
  5
35
  8
0
 66
     1
 10
0.0
 20
0.0
 30
0.0
 70
     1
  0
VERTEX
  5
5AA
  8
0
 10
1860.0
 20
0.0
 30
0.0
  0
VERTEX
  5
5AB
  8
0
 10
2860.0
 20
0.0
 30
0.0
  0
VERTEX
  5
5AC
  8
0
 10
2860.0
 20
-390.0
 30
0.0
  0
VERTEX
  5
5AD
  8
0
 10
1860.0
 20
-390.0
 30
0.0
  0
SEQEND
  5
5A9
  8
0
  0
POLYLINE
  5
36
  8
0
 66
     1
 10
0.0
 20
0.0
 30
0.0
 70
     1
  0
VERTEX
  5
5AF
  8
0
 10
2860.0
 20
0.0
 30
0.0
  0
VERTEX
  5
5B0
  8
0
 10
3860.0
 20
0.0
 30
0.0
  0
VERTEX
  5
5B1
  8
0
 10
3860.0
 20
-390.0
 30
0.0
  0
VERTEX
  5
5B2
  8
0
 10
2860.0
 20
-390.0
 30
0.0
  0
SEQEND
  5
5AE
  8
0
  0
LINE
  5
37
  8
0
 10
0.0
 20
0.0
 30
0.0
 11
0.0
 21
-280.0
 31
0.0
  0
LINE
  5
38
  8
0
 10
0.0
 20
-280.0
 30
0.0
 11
-370.0
 21
-280.0
 31
0.0
  0
LINE
  5
39
  8
0
 10
-370.0
 20
-280.0
 30
0.0
 11
-370.0
 21
-820.0
 31
0.0
  0
LINE
  5
3A
  8
0
 10
-370.0
 20
-820.0
 30
0.0
 11
20.0
 21
-820.0
 31
0.0
  0
LINE
  5
3E
  8
0
 10
265.0
 20
-390.0
 30
0.0
 11
20.0
 21
-635.0
 31
0.0
  0
LINE
  5
3F
  8
0
 10
20.0
 20
-635.0
 30
0.0
 11
20.0
 21
-820.0
 31
0.0
  0
LINE
  5
40
  8
0
 10
0.0
 20
-280.0
 30
0.0
 11
187.5
 21
-467.5
 31
0.0
  0
LINE
  5
41
  8
0
 10
-370.0
 20
-820.0
 30
0.0
 11
-467.0
 21
-1680.0
 31
0.0
  0
LINE
  5
42
  8
0
 10
-467.0
 20
-1680.0
 30
0.0
 11
-267.0
 21
-1680.0
 31
0.0
  0
LINE
  5
43
  8
0
 10
-267.0
 20
-1680.0
 30
0.0
 11
-57.0
 21
-1680.0
 31
0.0
  0
LINE
  5
44
  8
0
 10
-57.00000000000004
 20
-1680.0
 30
0.0
 11
124.8653347947321
 21
-1575.0
 31
0.0
  0
LINE
  5
45
  8
0
 10
124.8653347947321
 20
-1575.0
 30
0.0
 11
298.0704155516198
 21
-1475.0
 31
0.0
  0
LINE
  5
48
  8
0
 10
20.0
 20
-820.0
 30
0.0
 11
20.0
 21
-993.3679121828036
 31
0.0
  0
LINE
  5
49
  8
0
 10
-153.2050807568877
 20
-1093.367912182804
 30
0.0
 11
124.8653347947321
 21
-1575.0
 31
0.0
  0
LINE
  5
4B
  8
0
 10
20.0
 20
-993.3679121828036
 30
0.0
 11
298.0704155516198
 21
-1475.0
 31
0.0
  0
POLYLINE
  5
54
  8
0
 62
     1
 66
     1
 10
0.0
 20
0.0
 30
0.0
 40
9.0
 41
9.0
  0
VERTEX
  5
5B4
  8
0
 62
     1
 10
-267.0
 20
-820.0000000000001
 30
0.0
  0
VERTEX
  5
5B5
  8
0
 62
     1
 10
-267.0
 20
-1680.0
 30
0.0
  0
SEQEND
  5
5B3
  8
0
 62
     1
  0
POLYLINE
  5
9B
  8
0
 66
     1
 10
0.0
 20
0.0
 30
0.0
 40
9.0
 41
9.0
  0
VERTEX
  5
5B7
  8
0
 10
124.8653347947321
 20
-1575.0
 30
0.0
  0
VERTEX
  5
5B8
  8
0
 10
-153.2050807568877
 20
-1093.367912182804
 30
0.0
  0
SEQEND
  5
5B6
  8
0
  0
POLYLINE
  5
62
  8
0
 66
     1
 10
0.0
 20
0.0
 30
0.0
 40
9.0
 41
9.0
  0
VERTEX
  5
5BA
  8
0
 10
-237.0
 20
-820.0000000000001
 30
0.0
 42
0.0779008519533332
  0
VERTEX
  5
5BB
  8
0
 10
-212.9726887477986
 20
-961.4722479155947
 30
0.0
 42
0.0525501739575038
  0
VERTEX
  5
5BC
  8
0
 10
-153.2050807568877
 20
-1093.367912182804
 30
0.0
 42
8.543585503754507
  0
SEQEND
  5
5B9
  8
0
  0
TEXT
  5
63
  8
0
 10
1069.557424285514
 20
-656.792811539013
 30
0.0
 40
100.0
  1
Rheinfort
  0
POLYLINE
  5
D8
  8
0
 62
     1
 66
     1
 10
0.0
 20
0.0
 30
0.0
 40
9.0
 41
9.0
  0
VERTEX
  5
5BE
  8
0
 62
     1
 10
1145.539914551706
 20
-111.6543195808877
 30
0.0
  0
VERTEX
  5
5BF
  8
0
 62
     1
 10
2356.723362770971
 20
-69.85925725106873
 30
0.0
  0
SEQEND
  5
5BD
  8
0
 62
     1
  0
POLYLINE
  5
F1
  8
0
 62
     1
 66
     1
 10
0.0
 20
0.0
 30
0.0
 40
9.0
 41
9.0
  0
VERTEX
  5
5C1
  8
0
 62
     1
 10
2710.874741831823
 20
-109.7079683438409
 30
0.0
 42
-0.0652057610927183
  0
VERTEX
  5
5C2
  8
0
 62
     1
 10
2870.688734109311
 20
-124.5821156478984
 30
0.0
 42
-15.33606821302301
  0
SEQEND
  5
5C0
  8
0
 62
     1
  0
POLYLINE
  5
F6
  8
0
 62
     1
 66
     1
 10
0.0
 20
0.0
 30
0.0
 40
9.0
 41
9.0
  0
VERTEX
  5
5C4
  8
0
 62
     1
 10
2503.71987208404
 20
-131.8482182807094
 30
0.0
  0
VERTEX
  5
5C5
  8
0
 62
     1
 10
2533.044980661315
 20
-125.520658962057
 30
0.0
  0
SEQEND
  5
5C3
  8
0
 62
     1
  0
POLYLINE
  5
FB
  8
0
 62
     1
 66
     1
 10
0.0
 20
0.0
 30
0.0
 40
9.0
 41
9.0
  0
VERTEX
  5
5C7
  8
0
 62
     1
 10
2655.914408877578
 20
-111.7964609961022
 30
0.0
  0
VERTEX
  5
5C8
  8
0
 62
     1
 10
2710.874741831823
 20
-109.7079683438409
 30
0.0
  0
SEQEND
  5
5C6
  8
0
 62
     1
  0
POLYLINE
  5
145
  8
0
 62
     1
 66
     1
 10
0.0
 20
0.0
 30
0.0
 40
9.0
 41
9.0
  0
VERTEX
  5
5CA
  8
0
 62
     1
 10
2240.221466620501
 20
-175.9163173820648
 30
0.0
  0
VERTEX
  5
5CB
  8
0
 62
     1
 10
787.2671038039432
 20
-231.1285831690887
 30
0.0
  0
SEQEND
  5
5C9
  8
0
 62
     1
  0
POLYLINE
  5
15A
  8
0
 62
     1
 66
     1
 10
0.0
 20
0.0
 30
0.0
 40
9.0
 41
9.0
  0
VERTEX
  5
5CD
  8
0
 62
     1
 10
3222.390760964552
 20
-217.4602752836401
 30
0.0
  0
VERTEX
  5
5CE
  8
0
 62
     1
 10
3584.400573237012
 20
-369.8122208077454
 30
0.0
  0
SEQEND
  5
5CC
  8
0
 62
     1
  0
POLYLINE
  5
15F
  8
0
 66
     1
 10
0.0
 20
0.0
 30
0.0
 40
9.0
 41
9.0
  0
VERTEX
  5
5D0
  8
0
 10
2987.846354648566
 20
-164.0706196659016
 30
0.0
  0
VERTEX
  5
5D1
  8
0
 10
3430.547310649203
 20
-350.3814588906577
 30
0.0
  0
SEQEND
  5
5CF
  8
0
  0
POLYLINE
  5
16B
  8
0
 62
     1
 66
     1
 10
0.0
 20
0.0
 30
0.0
 40
9.0
 41
9.0
  0
VERTEX
  5
5D3
  8
0
 62
     1
 10
1047.389753404452
 20
-130.3701676263009
 30
0.0
 42
-0.0410530662628198
  0
VERTEX
  5
5D4
  8
0
 62
     1
 10
1145.539914551706
 20
-111.6543195808877
 30
0.0
 42
-24.35871643784352
  0
SEQEND
  5
5D2
  8
0
 62
     1
  0
POLYLINE
  5
171
  8
0
 62
     1
 66
     1
 10
0.0
 20
0.0
 30
0.0
 40
9.0
 41
9.0
  0
VERTEX
  5
5D6
  8
0
 62
     1
 10
2356.723362770971
 20
-69.85925725106873
 30
0.0
 42
-0.0431125740025461
  0
VERTEX
  5
5D7
  8
0
 62
     1
 10
2456.815993841565
 20
-76.81197048969732
 30
0.0
 42
-23.19508920856737
  0
SEQEND
  5
5D5
  8
0
 62
     1
  0
POLYLINE
  5
178
  8
0
 62
     1
 66
     1
 10
0.0
 20
0.0
 30
0.0
 40
9.0
 41
9.0
  0
VERTEX
  5
5D9
  8
0
 62
     1
 10
2653.277925828139
 20
-99.57766575557487
 30
0.0
  0
VERTEX
  5
5DA
  8
0
 62
     1
 10
2682.603034405413
 20
-93.25010643692245
 30
0.0
  0
SEQEND
  5
5D8
  8
0
 62
     1
  0
POLYLINE
  5
182
  8
0
 62
     1
 66
     1
 10
0.0
 20
0.0
 30
0.0
 40
9.0
 41
9.0
  0
VERTEX
  5
5DC
  8
0
 62
     1
 10
2240.221466620501
 20
-175.9163173820648
 30
0.0
  0
VERTEX
  5
5DD
  8
0
 62
     1
 10
2312.154180975194
 20
-173.1828742365806
 30
0.0
  0
VERTEX
  5
5DE
  8
0
 62
     1
 10
2363.090894836763
 20
-162.1921194161135
 30
0.0
  0
SEQEND
  5
5DB
  8
0
 62
     1
  0
POLYLINE
  5
189
  8
0
 62
     1
 66
     1
 10
0.0
 20
0.0
 30
0.0
 40
9.0
 41
9.0
  0
VERTEX
  5
5E0
  8
0
 62
     1
 10
2363.090894836763
 20
-162.1921194161135
 30
0.0
  0
VERTEX
  5
5E1
  8
0
 62
     1
 10
2383.486926917216
 20
-157.7912114871916
 30
0.0
  0
SEQEND
  5
5DF
  8
0
 62
     1
  0
INSERT
  5
194
  8
0
  2
WEICHE123
 10
2931.962962033232
 20
-240.3205671364578
 30
0.0
 50
172.1761925505277
  0
POLYLINE
  5
19B
  8
0
 66
     1
 10
0.0
 20
0.0
 30
0.0
  0
VERTEX
  5
5E2
  8
0
 10
2610.172539131212
 20
-218.4934435130139
 30
0.0
  0
VERTEX
  5
5E3
  8
0
 10
2618.503123023801
 20
-218.1832697190989
 30
0.0
  0
VERTEX
  5
5E4
  8
0
 10
2626.839685313062
 20
-217.8883633189774
 30
0.0
  0
VERTEX
  5
5E5
  8
0
 10
2635.181411440888
 20
-217.6128319431481
 30
0.0
  0
VERTEX
  5
5E6
  8
0
 10
2643.527486849175
 20
-217.3607832221095
 30
0.0
  0
VERTEX
  5
5E7
  8
0
 10
2651.877096979818
 20
-217.1363247863604
 30
0.0
  0
VERTEX
  5
5E8
  8
0
 10
2660.229427274711
 20
-216.9435642663992
 30
0.0
  0
VERTEX
  5
5E9
  8
0
 10
2668.58366317575
 20
-216.7866092927246
 30
0.0
  0
VERTEX
  5
5EA
  8
0
 10
2676.938990124829
 20
-216.6695674958353
 30
0.0
  0
VERTEX
  5
5EB
  8
0
 10
2685.294593563843
 20
-216.5965465062297
 30
0.0
  0
VERTEX
  5
5EC
  8
0
 10
2693.649658934688
 20
-216.5716539544067
 30
0.0
  0
VERTEX
  5
5ED
  8
0
 10
2702.003371679258
 20
-216.5989974708646
 30
0.0
  0
VERTEX
  5
5EE
  8
0
 10
2710.354917239448
 20
-216.6826846861022
 30
0.0
  0
VERTEX
  5
5EF
  8
0
 10
2718.703481057153
 20
-216.826823230618
 30
0.0
  0
VERTEX
  5
5F0
  8
0
 10
2727.048248574268
 20
-217.0355207349107
 30
0.0
  0
VERTEX
  5
5F1
  8
0
 10
2735.388405232687
 20
-217.3128848294789
 30
0.0
  0
VERTEX
  5
5F2
  8
0
 10
2743.723136474306
 20
-217.6630231448211
 30
0.0
  0
VERTEX
  5
5F3
  8
0
 10
2752.05162774102
 20
-218.090043311436
 30
0.0
  0
VERTEX
  5
5F4
  8
0
 10
2760.373064474723
 20
-218.5980529598223
 30
0.0
  0
VERTEX
  5
5F5
  8
0
 10
2768.68663211731
 20
-219.1911597204784
 30
0.0
  0
VERTEX
  5
5F6
  8
0
 10
2776.991516110677
 20
-219.873471223903
 30
0.0
  0
VERTEX
  5
5F7
  8
0
 10
2785.286901896718
 20
-220.6490951005948
 30
0.0
  0
VERTEX
  5
5F8
  8
0
 10
2793.571974917327
 20
-221.5221389810523
 30
0.0
  0
VERTEX
  5
5F9
  8
0
 10
2801.845920614401
 20
-222.4967104957741
 30
0.0
  0
VERTEX
  5
5FA
  8
0
 10
2810.107924330765
 20
-223.5769172616461
 30
0.0
  0
SEQEND
  5
5FB
  8
0
  0
POLYLINE
  5
1A0
  8
0
 66
     1
 10
0.0
 20
0.0
 30
0.0
 40
9.0
 41
9.0
  0
VERTEX
  5
5FD
  8
0
 10
2610.172539131212
 20
-218.4934435130139
 30
0.0
 42
-0.04606835320243
  0
VERTEX
  5
5FE
  8
0
 10
2810.107924429834
 20
-223.5769172752589
 30
0.0
 42
-21.70687533817061
  0
SEQEND
  5
5FC
  8
0
  0
POLYLINE
  5
1A3
  8
0
 66
     1
 10
0.0
 20
0.0
 30
0.0
  0
VERTEX
  5
5FF
  8
0
 10
830.496293991381
 20
-298.6301625726492
 30
0.0
  0
VERTEX
  5
600
  8
0
 10
835.1481926760986
 20
-299.2656807603695
 30
0.0
  0
VERTEX
  5
601
  8
0
 10
839.8042955255833
 20
-299.8928747151863
 30
0.0
  0
VERTEX
  5
602
  8
0
 10
844.4643730107255
 20
-300.5094060273635
 30
0.0
  0
VERTEX
  5
603
  8
0
 10
849.1281956024154
 20
-301.1129362871651
 30
0.0
  0
VERTEX
  5
604
  8
0
 10
853.7955337715443
 20
-301.7011270848548
 30
0.0
  0
VERTEX
  5
605
  8
0
 10
858.4661579890021
 20
-302.2716400106966
 30
0.0
  0
VERTEX
  5
606
  8
0
 10
863.1398387256796
 20
-302.8221366549543
 30
0.0
  0
VERTEX
  5
607
  8
0
 10
867.8163464524673
 20
-303.3502786078917
 30
0.0
  0
VERTEX
  5
608
  8
0
 10
872.4954516402556
 20
-303.8537274597727
 30
0.0
  0
VERTEX
  5
609
  8
0
 10
877.1769247599353
 20
-304.3301448008613
 30
0.0
  0
VERTEX
  5
60A
  8
0
 10
881.8605362823968
 20
-304.7771922214213
 30
0.0
  0
VERTEX
  5
60B
  8
0
 10
886.5460566785305
 20
-305.1925313117165
 30
0.0
  0
VERTEX
  5
60C
  8
0
 10
891.2332564192269
 20
-305.5738236620108
 30
0.0
  0
VERTEX
  5
60D
  8
0
 10
895.9219059753768
 20
-305.9187308625681
 30
0.0
  0
VERTEX
  5
60E
  8
0
 10
900.6117758178706
 20
-306.2249145036523
 30
0.0
  0
VERTEX
  5
60F
  8
0
 10
905.3026364175986
 20
-306.4900361755272
 30
0.0
  0
VERTEX
  5
610
  8
0
 10
909.9942582454518
 20
-306.7117574684566
 30
0.0
  0
VERTEX
  5
611
  8
0
 10
914.6864117723204
 20
-306.8877399727046
 30
0.0
  0
VERTEX
  5
612
  8
0
 10
919.3788674690949
 20
-307.0156452785348
 30
0.0
  0
VERTEX
  5
613
  8
0
 10
924.071395806666
 20
-307.0931349762112
 30
0.0
  0
VERTEX
  5
614
  8
0
 10
928.7637672559242
 20
-307.1178706559978
 30
0.0
  0
VERTEX
  5
615
  8
0
 10
933.4557522877601
 20
-307.0875139081582
 30
0.0
  0
VERTEX
  5
616
  8
0
 10
938.1471213730639
 20
-306.9997263229565
 30
0.0
  0
VERTEX
  5
617
  8
0
 10
942.8376448827985
 20
-306.8521694944536
 30
0.0
  0
SEQEND
  5
618
  8
0
  0
POLYLINE
  5
1A8
  8
0
 66
     1
 10
0.0
 20
0.0
 30
0.0
 40
9.0
 41
9.0
  0
VERTEX
  5
61A
  8
0
 10
830.496293991381
 20
-298.6301625726492
 30
0.0
 42
0.038985734735975
  0
VERTEX
  5
61B
  8
0
 10
940.6282292524377
 20
-306.9292727695351
 30
0.0
 42
25.65040794465842
  0
SEQEND
  5
619
  8
0
  0
POLYLINE
  5
1AD
  8
0
 62
     1
 66
     1
 10
0.0
 20
0.0
 30
0.0
 40
9.0
 41
9.0
  0
VERTEX
  5
61D
  8
0
 62
     1
 10
830.0216365704118
 20
-286.1391778103209
 30
0.0
  0
VERTEX
  5
61E
  8
0
 62
     1
 10
860.0
 20
-285.0
 30
0.0
  0
SEQEND
  5
61C
  8
0
 62
     1
  0
POLYLINE
  5
1B2
  8
0
 66
     1
 10
0.0
 20
0.0
 30
0.0
 40
9.0
 41
9.0
  0
VERTEX
  5
620
  8
0
 10
940.6282292524377
 20
-306.9292727695351
 30
0.0
  0
VERTEX
  5
621
  8
0
 10
2808.406333996785
 20
-235.9605593081246
 30
0.0
  0
SEQEND
  5
61F
  8
0
  0
INSERT
  5
1B3
  8
0
  2
WEICHE123
 10
2808.406333996785
 20
-235.9605593081245
 30
0.0
 50
182.1761925505267
  0
POLYLINE
  5
1B4
  8
0
 66
     1
 10
0.0
 20
0.0
 30
0.0
  0
VERTEX
  5
622
  8
0
 10
2685.969701356443
 20
-253.1221730927856
 30
0.0
  0
VERTEX
  5
623
  8
0
 10
2680.628100501994
 20
-254.2598111614318
 30
0.0
  0
VERTEX
  5
624
  8
0
 10
2675.278133062727
 20
-255.368784120707
 30
0.0
  0
VERTEX
  5
625
  8
0
 10
2669.920109275142
 20
-256.4481209541122
 30
0.0
  0
VERTEX
  5
626
  8
0
 10
2664.55433937574
 20
-257.4968506451482
 30
0.0
  0
VERTEX
  5
627
  8
0
 10
2659.18113360102
 20
-258.5140021773157
 30
0.0
  0
VERTEX
  5
628
  8
0
 10
2653.800802187483
 20
-259.4986045341156
 30
0.0
  0
VERTEX
  5
629
  8
0
 10
2648.413655371629
 20
-260.4496866990488
 30
0.0
  0
VERTEX
  5
62A
  8
0
 10
2643.020003389959
 20
-261.3662776556158
 30
0.0
  0
VERTEX
  5
62B
  8
0
 10
2637.620156478972
 20
-262.2474063873178
 30
0.0
  0
VERTEX
  5
62C
  8
0
 10
2632.214424875169
 20
-263.0921018776554
 30
0.0
  0
VERTEX
  5
62D
  8
0
 10
2626.80311881505
 20
-263.8993931101294
 30
0.0
  0
VERTEX
  5
62E
  8
0
 10
2621.386548535115
 20
-264.6683090682408
 30
0.0
  0
VERTEX
  5
62F
  8
0
 10
2615.965024271866
 20
-265.3978787354901
 30
0.0
  0
VERTEX
  5
630
  8
0
 10
2610.538856261801
 20
-266.0871310953783
 30
0.0
  0
VERTEX
  5
631
  8
0
 10
2605.108354741421
 20
-266.7350951314062
 30
0.0
  0
VERTEX
  5
632
  8
0
 10
2599.673829947227
 20
-267.3407998270747
 30
0.0
  0
VERTEX
  5
633
  8
0
 10
2594.235592115717
 20
-267.9032741658844
 30
0.0
  0
VERTEX
  5
634
  8
0
 10
2588.793951483394
 20
-268.4215471313363
 30
0.0
  0
VERTEX
  5
635
  8
0
 10
2583.349218286758
 20
-268.8946477069312
 30
0.0
  0
VERTEX
  5
636
  8
0
 10
2577.901702762307
 20
-269.3216048761697
 30
0.0
  0
VERTEX
  5
637
  8
0
 10
2572.451715146543
 20
-269.7014476225529
 30
0.0
  0
VERTEX
  5
638
  8
0
 10
2566.999565675966
 20
-270.0332049295814
 30
0.0
  0
VERTEX
  5
639
  8
0
 10
2561.545564587076
 20
-270.315905780756
 30
0.0
  0
VERTEX
  5
63A
  8
0
 10
2556.090022216301
 20
-270.5485791557805
 30
0.0
  0
SEQEND
  5
63B
  8
0
  0
POLYLINE
  5
1B9
  8
0
 66
     1
 10
0.0
 20
0.0
 30
0.0
 40
9.0
 41
9.0
  0
VERTEX
  5
63D
  8
0
 10
2556.090022116373
 20
-270.5485791595777
 30
0.0
 42
0.0429584303030044
  0
VERTEX
  5
63E
  8
0
 10
2685.969701356443
 20
-253.1221730927856
 30
0.0
 42
23.27831796801176
  0
SEQEND
  5
63C
  8
0
  0
POLYLINE
  5
1C9
  8
0
 66
     1
 10
0.0
 20
0.0
 30
0.0
 40
9.0
 41
9.0
  0
VERTEX
  5
640
  8
0
 10
2931.962962033232
 20
-240.3205671364578
 30
0.0
 42
-0.0409767946793148
  0
VERTEX
  5
641
  8
0
 10
3124.00094253903
 20
-285.4638076654325
 30
0.0
 42
-24.40405619390217
  0
SEQEND
  5
63F
  8
0
  0
POLYLINE
  5
1CE
  8
0
 66
     1
 10
0.0
 20
0.0
 30
0.0
 40
9.0
 41
9.0
  0
VERTEX
  5
643
  8
0
 10
3123.959585275346
 20
-285.4504332623749
 30
0.0
  0
VERTEX
  5
644
  8
0
 10
3211.526878514143
 20
-314.3356236553165
 30
0.0
  0
SEQEND
  5
642
  8
0
  0
INSERT
  5
1D3
  8
0
  2
WEICHE123
 10
706.2516046733982
 20
-308.2197896647984
 30
0.0
 41
-1.0
 50
172.1761925505286
  0
POLYLINE
  5
1D9
  8
0
 66
     1
 10
0.0
 20
0.0
 30
0.0
 40
9.0
 41
9.0
  0
VERTEX
  5
646
  8
0
 10
828.1066422767966
 20
-324.9634395259955
 30
0.0
 42
0.0442225657829486
  0
VERTEX
  5
647
  8
0
 10
975.8590365874766
 20
-330.5973566096759
 30
0.0
 42
22.61288964797223
  0
SEQEND
  5
645
  8
0
  0
POLYLINE
  5
1DE
  8
0
 66
     1
 10
0.0
 20
0.0
 30
0.0
 40
9.0
 41
9.0
  0
VERTEX
  5
649
  8
0
 10
975.8590365874763
 20
-330.5973566096761
 30
0.0
  0
VERTEX
  5
64A
  8
0
 10
2556.090022116373
 20
-270.5485791595777
 30
0.0
  0
SEQEND
  5
648
  8
0
  0
POLYLINE
  5
1DF
  8
0
 66
     1
 10
0.0
 20
0.0
 30
0.0
  0
VERTEX
  5
64B
  8
0
 10
826.4050518437481
 20
-337.3470815588611
 30
0.0
  0
VERTEX
  5
64C
  8
0
 10
830.841433230184
 20
-338.7613953167243
 30
0.0
  0
VERTEX
  5
64D
  8
0
 10
835.2961048910782
 20
-340.1548210579742
 30
0.0
  0
VERTEX
  5
64E
  8
0
 10
839.7682368131699
 20
-341.5231972799552
 30
0.0
  0
VERTEX
  5
64F
  8
0
 10
844.256998983198
 20
-342.8623624800112
 30
0.0
  0
VERTEX
  5
650
  8
0
 10
848.7615613879017
 20
-344.1681551554866
 30
0.0
  0
VERTEX
  5
651
  8
0
 10
853.2810940140198
 20
-345.4364138037254
 30
0.0
  0
VERTEX
  5
652
  8
0
 10
857.8147668482914
 20
-346.6629769220718
 30
0.0
  0
VERTEX
  5
653
  8
0
 10
862.3617498774554
 20
-347.84368300787
 30
0.0
  0
VERTEX
  5
654
  8
0
 10
866.921213088251
 20
-348.9743705584642
 30
0.0
  0
VERTEX
  5
655
  8
0
 10
871.492326467417
 20
-350.0508780711984
 30
0.0
  0
VERTEX
  5
656
  8
0
 10
876.0742600016927
 20
-351.0690440434169
 30
0.0
  0
VERTEX
  5
657
  8
0
 10
880.6661836778169
 20
-352.0247069724638
 30
0.0
  0
VERTEX
  5
658
  8
0
 10
885.2672674825285
 20
-352.9137053556833
 30
0.0
  0
VERTEX
  5
659
  8
0
 10
889.8766814025669
 20
-353.7318776904194
 30
0.0
  0
VERTEX
  5
65A
  8
0
 10
894.4935954246708
 20
-354.4750624740166
 30
0.0
  0
VERTEX
  5
65B
  8
0
 10
899.1171795355793
 20
-355.1390982038187
 30
0.0
  0
VERTEX
  5
65C
  8
0
 10
903.7466037220315
 20
-355.71982337717
 30
0.0
  0
VERTEX
  5
65D
  8
0
 10
908.3810379707664
 20
-356.2130764914148
 30
0.0
  0
VERTEX
  5
65E
  8
0
 10
913.0196522685229
 20
-356.6146960438971
 30
0.0
  0
VERTEX
  5
65F
  8
0
 10
917.66161660204
 20
-356.9205205319611
 30
0.0
  0
VERTEX
  5
660
  8
0
 10
922.3061009580569
 20
-357.126388452951
 30
0.0
  0
VERTEX
  5
661
  8
0
 10
926.9522753233124
 20
-357.2281383042108
 30
0.0
  0
VERTEX
  5
662
  8
0
 10
931.5993096845457
 20
-357.2216085830848
 30
0.0
  0
VERTEX
  5
663
  8
0
 10
936.2463739285677
 20
-357.1026377907144
 30
0.0
  0
SEQEND
  5
664
  8
0
  0
POLYLINE
  5
1E4
  8
0
 66
     1
 10
0.0
 20
0.0
 30
0.0
 40
9.0
 41
9.0
  0
VERTEX
  5
666
  8
0
 10
826.4050518437481
 20
-337.3470815588611
 30
0.0
 42
0.0810158442629183
  0
VERTEX
  5
667
  8
0
 10
936.2463740284957
 20
-357.1026377869172
 30
0.0
 42
12.34326456877663
  0
SEQEND
  5
665
  8
0
  0
POLYLINE
  5
1E9
  8
0
 66
     1
 10
0.0
 20
0.0
 30
0.0
 40
9.0
 41
9.0
  0
VERTEX
  5
669
  8
0
 10
936.2463740284957
 20
-357.1026377869172
 30
0.0
  0
VERTEX
  5
66A
  8
0
 10
1841.969798749375
 20
-322.6851476475237
 30
0.0
  0
SEQEND
  5
668
  8
0
  0
POLYLINE
  5
1EF
  8
0
 66
     1
 10
0.0
 20
0.0
 30
0.0
  0
VERTEX
  5
66B
  8
0
 10
-267.0
 20
-820.0000000000001
 30
0.0
  0
VERTEX
  5
66C
  8
0
 10
-265.7217029216586
 20
-784.6289298873387
 30
0.0
  0
VERTEX
  5
66D
  8
0
 10
-261.9513379665613
 20
-749.2135807388672
 30
0.0
  0
VERTEX
  5
66E
  8
0
 10
-255.7856945545993
 20
-713.87923329098
 30
0.0
  0
VERTEX
  5
66F
  8
0
 10
-247.3215621056633
 20
-678.7511682800716
 30
0.0
  0
VERTEX
  5
670
  8
0
 10
-236.6557300396441
 20
-643.9546664425374
 30
0.0
  0
VERTEX
  5
671
  8
0
 10
-223.8849877764327
 20
-609.6150085147718
 30
0.0
  0
VERTEX
  5
672
  8
0
 10
-209.1061247359199
 20
-575.8574752331696
 30
0.0
  0
VERTEX
  5
673
  8
0
 10
-192.4159303379966
 20
-542.8073473341254
 30
0.0
  0
VERTEX
  5
674
  8
0
 10
-173.9111940025537
 20
-510.5899055540343
 30
0.0
  0
VERTEX
  5
675
  8
0
 10
-153.6887051494819
 20
-479.3304306292909
 30
0.0
  0
VERTEX
  5
676
  8
0
 10
-131.8452531986723
 20
-449.1542032962897
 30
0.0
  0
VERTEX
  5
677
  8
0
 10
-108.4776275700155
 20
-420.1865042914259
 30
0.0
  0
VERTEX
  5
678
  8
0
 10
-83.68261768340258
 20
-392.5526143510941
 30
0.0
  0
VERTEX
  5
679
  8
0
 10
-57.55701295872436
 20
-366.377814211689
 30
0.0
  0
VERTEX
  5
67A
  8
0
 10
-30.19760281587168
 20
-341.7873846096053
 30
0.0
  0
VERTEX
  5
67B
  8
0
 10
-1.70117667473545
 20
-318.906606281238
 30
0.0
  0
VERTEX
  5
67C
  8
0
 10
27.83549860829979
 20
-297.8604799480097
 30
0.0
  0
VERTEX
  5
67D
  8
0
 10
58.32052245392737
 20
-278.7136154318357
 30
0.0
  0
VERTEX
  5
67E
  8
0
 10
89.67289254328333
 20
-261.3953742445476
 30
0.0
  0
VERTEX
  5
67F
  8
0
 10
121.8130875315672
 20
-245.8167388878193
 30
0.0
  0
VERTEX
  5
680
  8
0
 10
154.6615860739786
 20
-231.8886918633245
 30
0.0
  0
VERTEX
  5
681
  8
0
 10
188.1388668257171
 20
-219.5222156727372
 30
0.0
  0
VERTEX
  5
682
  8
0
 10
222.1654084419823
 20
-208.6282928177309
 30
0.0
  0
VERTEX
  5
683
  8
0
 10
256.6616895779738
 20
-199.1179057999796
 30
0.0
  0
VERTEX
  5
684
  8
0
 10
291.5481888888911
 20
-190.9020371211569
 30
0.0
  0
VERTEX
  5
685
  8
0
 10
326.7453850299337
 20
-183.8916692829367
 30
0.0
  0
VERTEX
  5
686
  8
0
 10
362.1737566563014
 20
-177.9977847869928
 30
0.0
  0
VERTEX
  5
687
  8
0
 10
397.7537824231936
 20
-173.131366134999
 30
0.0
  0
VERTEX
  5
688
  8
0
 10
433.4059409858099
 20
-169.2033958286291
 30
0.0
  0
VERTEX
  5
689
  8
0
 10
469.05071099935
 20
-166.1248563695567
 30
0.0
  0
VERTEX
  5
68A
  8
0
 10
504.6085711190136
 20
-163.8067302594558
 30
0.0
  0
VERTEX
  5
68B
  8
0
 10
539.9999999000721
 20
-162.1600000037974
 30
0.0
  0
SEQEND
  5
68C
  8
0
  0
POLYLINE
  5
1F5
  8
0
 62
     1
 66
     1
 10
0.0
 20
0.0
 30
0.0
 40
9.0
 41
9.0
  0
VERTEX
  5
68E
  8
0
 62
     1
 10
604.1871370885237
 20
-213.0889021594812
 30
0.0
  0
VERTEX
  5
68F
  8
0
 62
     1
 10
860.0
 20
-203.3647331136364
 30
0.0
  0
SEQEND
  5
68D
  8
0
 62
     1
  0
POLYLINE
  5
1FA
  8
0
 62
     1
 66
     1
 10
0.0
 20
0.0
 30
0.0
 40
9.0
 41
9.0
  0
VERTEX
  5
691
  8
0
 62
     1
 10
860.0
 20
-203.3647331136364
 30
0.0
  0
VERTEX
  5
692
  8
0
 62
     1
 10
2380.850443867777
 20
-145.5724162466607
 30
0.0
  0
SEQEND
  5
690
  8
0
 62
     1
  0
POLYLINE
  5
1FF
  8
0
 62
     1
 66
     1
 10
0.0
 20
0.0
 30
0.0
 40
9.0
 41
9.0
  0
VERTEX
  5
694
  8
0
 62
     1
 10
540.0000000000001
 20
-162.1600000000001
 30
0.0
  0
VERTEX
  5
695
  8
0
 62
     1
 10
860.0000000000022
 20
-150.0
 30
0.0
  0
SEQEND
  5
693
  8
0
 62
     1
  0
POLYLINE
  5
203
  8
0
 66
     1
 10
0.0
 20
0.0
 30
0.0
  0
VERTEX
  5
696
  8
0
 10
491.3898852298822
 20
-220.0599092093147
 30
0.0
  0
VERTEX
  5
697
  8
0
 10
503.6836398379529
 20
-219.1554494240296
 30
0.0
  0
VERTEX
  5
698
  8
0
 10
515.9832795288229
 20
-218.5574346821172
 30
0.0
  0
VERTEX
  5
699
  8
0
 10
528.288410441389
 20
-218.2402705551368
 30
0.0
  0
VERTEX
  5
69A
  8
0
 10
540.5986387145487
 20
-218.1783626146475
 30
0.0
  0
VERTEX
  5
69B
  8
0
 10
552.9135704871989
 20
-218.3461164322084
 30
0.0
  0
VERTEX
  5
69C
  8
0
 10
565.2328118982366
 20
-218.7179375793788
 30
0.0
  0
VERTEX
  5
69D
  8
0
 10
577.5559690865593
 20
-219.2682316277177
 30
0.0
  0
VERTEX
  5
69E
  8
0
 10
589.8826481910639
 20
-219.9714041487844
 30
0.0
  0
VERTEX
  5
69F
  8
0
 10
602.2124553506477
 20
-220.8018607141379
 30
0.0
  0
VERTEX
  5
6A0
  8
0
 10
614.5449967042076
 20
-221.7340068953374
 30
0.0
  0
VERTEX
  5
6A1
  8
0
 10
626.8798783906409
 20
-222.7422482639421
 30
0.0
  0
VERTEX
  5
6A2
  8
0
 10
639.2167065488445
 20
-223.8009903915112
 30
0.0
  0
VERTEX
  5
6A3
  8
0
 10
651.555087317716
 20
-224.8846388496037
 30
0.0
  0
VERTEX
  5
6A4
  8
0
 10
663.894626836152
 20
-225.9675992097789
 30
0.0
  0
VERTEX
  5
6A5
  8
0
 10
676.23493124305
 20
-227.0242770435958
 30
0.0
  0
VERTEX
  5
6A6
  8
0
 10
688.5756066773071
 20
-228.0290779226137
 30
0.0
  0
VERTEX
  5
6A7
  8
0
 10
700.9162592778201
 20
-228.9564074183917
 30
0.0
  0
VERTEX
  5
6A8
  8
0
 10
713.2564951834866
 20
-229.7806711024889
 30
0.0
  0
VERTEX
  5
6A9
  8
0
 10
725.5959205332033
 20
-230.4762745464645
 30
0.0
  0
VERTEX
  5
6AA
  8
0
 10
737.9341414658677
 20
-231.0176233218776
 30
0.0
  0
VERTEX
  5
6AB
  8
0
 10
750.2707641203768
 20
-231.3791230002875
 30
0.0
  0
VERTEX
  5
6AC
  8
0
 10
762.6053946356276
 20
-231.5351791532531
 30
0.0
  0
VERTEX
  5
6AD
  8
0
 10
774.9376391505173
 20
-231.4601973523339
 30
0.0
  0
VERTEX
  5
6AE
  8
0
 10
787.2671037040152
 20
-231.128583172886
 30
0.0
  0
SEQEND
  5
6AF
  8
0
  0
POLYLINE
  5
208
  8
0
 62
     1
 66
     1
 10
0.0
 20
0.0
 30
0.0
 40
9.0
 41
9.0
  0
VERTEX
  5
6B1
  8
0
 62
     1
 10
491.3898852298822
 20
-220.0599092093147
 30
0.0
 42
-0.0395667048174092
  0
VERTEX
  5
6B2
  8
0
 62
     1
 10
639.2167065488446
 20
-223.8009903915112
 30
0.0
 42
-25.27377512519043
  0
SEQEND
  5
6B0
  8
0
 62
     1
  0
POLYLINE
  5
20D
  8
0
 62
     1
 66
     1
 10
0.0
 20
0.0
 30
0.0
 40
9.0
 41
9.0
  0
VERTEX
  5
6B4
  8
0
 62
     1
 10
639.2167065488446
 20
-223.8009903915112
 30
0.0
 42
0.0303307741361906
  0
VERTEX
  5
6B5
  8
0
 62
     1
 10
787.2671038039432
 20
-231.1285831690887
 30
0.0
 42
32.96981460182361
  0
SEQEND
  5
6B3
  8
0
 62
     1
  0
POLYLINE
  5
213
  8
0
 62
     1
 66
     1
 10
0.0
 20
0.0
 30
0.0
 40
9.0
 41
9.0
  0
VERTEX
  5
6B7
  8
0
 62
     1
 10
238.3316229590025
 20
-259.5761739569538
 30
0.0
 42
-0.1072132532504325
  0
VERTEX
  5
6B8
  8
0
 62
     1
 10
426.0900327075029
 20
-266.7154938462909
 30
0.0
 42
-9.327205076635115
  0
SEQEND
  5
6B6
  8
0
 62
     1
  0
POLYLINE
  5
21D
  8
0
 62
     1
 66
     1
 10
0.0
 20
0.0
 30
0.0
 40
9.0
 41
9.0
  0
VERTEX
  5
6BA
  8
0
 62
     1
 10
508.1133321475492
 20
-280.9943427360086
 30
0.0
  0
VERTEX
  5
6BB
  8
0
 62
     1
 10
426.0900327075029
 20
-266.7154938462909
 30
0.0
  0
SEQEND
  5
6B9
  8
0
 62
     1
  0
POLYLINE
  5
228
  8
0
 66
     1
 10
0.0
 20
0.0
 30
0.0
  0
VERTEX
  5
6BC
  8
0
 10
-189.8834992676717
 20
-590.8096617174678
 30
0.0
  0
VERTEX
  5
6BD
  8
0
 10
-176.8656576932284
 20
-562.5173278735076
 30
0.0
  0
VERTEX
  5
6BE
  8
0
 10
-161.3142774297398
 20
-536.0898063534212
 30
0.0
  0
VERTEX
  5
6BF
  8
0
 10
-143.3847669685021
 20
-511.4638177474834
 30
0.0
  0
VERTEX
  5
6C0
  8
0
 10
-123.2325348008114
 20
-488.5760826459694
 30
0.0
  0
VERTEX
  5
6C1
  8
0
 10
-101.0129894179643
 20
-467.3633216391542
 30
0.0
  0
VERTEX
  5
6C2
  8
0
 10
-76.88153931125686
 20
-447.7622553173126
 30
0.0
  0
VERTEX
  5
6C3
  8
0
 10
-50.99359297198541
 20
-429.7096042707196
 30
0.0
  0
VERTEX
  5
6C4
  8
0
 10
-23.50455889144612
 20
-413.1420890896504
 30
0.0
  0
VERTEX
  5
6C5
  8
0
 10
5.430154439064637
 20
-397.9964303643799
 30
0.0
  0
VERTEX
  5
6C6
  8
0
 10
35.65513852825063
 20
-384.2093486851829
 30
0.0
  0
VERTEX
  5
6C7
  8
0
 10
67.01498488481562
 20
-371.7175646423347
 30
0.0
  0
VERTEX
  5
6C8
  8
0
 10
99.35428501746333
 20
-360.4577988261099
 30
0.0
  0
VERTEX
  5
6C9
  8
0
 10
132.5176304348975
 20
-350.3667718267838
 30
0.0
  0
VERTEX
  5
6CA
  8
0
 10
166.3496126458218
 20
-341.3812042346312
 30
0.0
  0
VERTEX
  5
6CB
  8
0
 10
200.69482315894
 20
-333.4378166399272
 30
0.0
  0
VERTEX
  5
6CC
  8
0
 10
235.3978534829559
 20
-326.4733296329469
 30
0.0
  0
VERTEX
  5
6CD
  8
0
 10
270.3032951265733
 20
-320.424463803965
 30
0.0
  0
VERTEX
  5
6CE
  8
0
 10
305.2557395984957
 20
-315.2279397432566
 30
0.0
  0
VERTEX
  5
6CF
  8
0
 10
340.0997784074269
 20
-310.8204780410968
 30
0.0
  0
VERTEX
  5
6D0
  8
0
 10
374.6800030620708
 20
-307.1387992877605
 30
0.0
  0
VERTEX
  5
6D1
  8
0
 10
408.8410050711309
 20
-304.1196240735226
 30
0.0
  0
VERTEX
  5
6D2
  8
0
 10
442.4273759433112
 20
-301.6996729886583
 30
0.0
  0
VERTEX
  5
6D3
  8
0
 10
475.2837071873152
 20
-299.8156666234423
 30
0.0
  0
VERTEX
  5
6D4
  8
0
 10
507.2545902119192
 20
-298.404325571947
 30
0.0
  0
SEQEND
  5
6D5
  8
0
  0
POLYLINE
  5
237
  8
0
 66
     1
 10
0.0
 20
0.0
 30
0.0
  0
VERTEX
  5
6D6
  8
0
 10
507.254590311847
 20
-298.4043255681498
 30
0.0
  0
VERTEX
  5
6D7
  8
0
 10
489.8090204919709
 20
-299.224940034227
 30
0.0
  0
VERTEX
  5
6D8
  8
0
 10
472.2190782053076
 20
-300.3765263432315
 30
0.0
  0
VERTEX
  5
6D9
  8
0
 10
454.5171174887317
 20
-301.8730351367801
 30
0.0
  0
VERTEX
  5
6DA
  8
0
 10
436.7354923791178
 20
-303.7284170564892
 30
0.0
  0
VERTEX
  5
6DB
  8
0
 10
418.9065569133403
 20
-305.9566227439757
 30
0.0
  0
VERTEX
  5
6DC
  8
0
 10
401.0626651282739
 20
-308.5716028408561
 30
0.0
  0
VERTEX
  5
6DD
  8
0
 10
383.2361710607931
 20
-311.5873079887471
 30
0.0
  0
VERTEX
  5
6DE
  8
0
 10
365.4594287477725
 20
-315.0176888292652
 30
0.0
  0
VERTEX
  5
6DF
  8
0
 10
347.7647922260866
 20
-318.8766960040271
 30
0.0
  0
VERTEX
  5
6E0
  8
0
 10
330.1846155326099
 20
-323.1782801546495
 30
0.0
  0
VERTEX
  5
6E1
  8
0
 10
312.7512527042171
 20
-327.936391922749
 30
0.0
  0
VERTEX
  5
6E2
  8
0
 10
295.4970577777827
 20
-333.1649819499421
 30
0.0
  0
VERTEX
  5
6E3
  8
0
 10
278.4543847901812
 20
-338.8780008778456
 30
0.0
  0
VERTEX
  5
6E4
  8
0
 10
261.6555877782872
 20
-345.0893993480761
 30
0.0
  0
VERTEX
  5
6E5
  8
0
 10
245.1330207789752
 20
-351.8131280022502
 30
0.0
  0
VERTEX
  5
6E6
  8
0
 10
228.9190378291199
 20
-359.0631374819845
 30
0.0
  0
VERTEX
  5
6E7
  8
0
 10
213.0459929655956
 20
-366.8533784288958
 30
0.0
  0
VERTEX
  5
6E8
  8
0
 10
197.5462402252771
 20
-375.1978014846005
 30
0.0
  0
VERTEX
  5
6E9
  8
0
 10
182.4521336450389
 20
-384.1103572907153
 30
0.0
  0
VERTEX
  5
6EA
  8
0
 10
167.7960272617555
 20
-393.6049964888569
 30
0.0
  0
VERTEX
  5
6EB
  8
0
 10
153.6102751123015
 20
-403.695669720642
 30
0.0
  0
VERTEX
  5
6EC
  8
0
 10
139.9272312335513
 20
-414.396327627687
 30
0.0
  0
VERTEX
  5
6ED
  8
0
 10
126.7792496623797
 20
-425.7209208516088
 30
0.0
  0
VERTEX
  5
6EE
  8
0
 10
114.1986845063719
 20
-437.6833999633131
 30
0.0
  0
SEQEND
  5
6EF
  8
0
  0
POLYLINE
  5
239
  8
0
 66
     1
 10
0.0
 20
0.0
 30
0.0
  0
VERTEX
  5
6F0
  8
0
 10
308.2735129463095
 20
-329.2420531782453
 30
0.0
  0
VERTEX
  5
6F1
  8
0
 10
300.9022829493673
 20
-331.5499812345057
 30
0.0
  0
VERTEX
  5
6F2
  8
0
 10
293.6480682807872
 20
-334.1525351991161
 30
0.0
  0
VERTEX
  5
6F3
  8
0
 10
286.5076545245727
 20
-337.0354883766402
 30
0.0
  0
VERTEX
  5
6F4
  8
0
 10
279.4778272647271
 20
-340.1846140716419
 30
0.0
  0
VERTEX
  5
6F5
  8
0
 10
272.5553720852538
 20
-343.5856855886855
 30
0.0
  0
VERTEX
  5
6F6
  8
0
 10
265.737074570156
 20
-347.2244762323345
 30
0.0
  0
VERTEX
  5
6F7
  8
0
 10
259.0197203034372
 20
-351.0867593071531
 30
0.0
  0
VERTEX
  5
6F8
  8
0
 10
252.4000948691007
 20
-355.158308117705
 30
0.0
  0
VERTEX
  5
6F9
  8
0
 10
245.8749838511499
 20
-359.4248959685543
 30
0.0
  0
VERTEX
  5
6FA
  8
0
 10
239.441172833588
 20
-363.8722961642649
 30
0.0
  0
VERTEX
  5
6FB
  8
0
 10
233.0954474004184
 20
-368.4862820094006
 30
0.0
  0
VERTEX
  5
6FC
  8
0
 10
226.8345931356445
 20
-373.2526268085254
 30
0.0
  0
VERTEX
  5
6FD
  8
0
 10
220.6553956232696
 20
-378.1571038662032
 30
0.0
  0
VERTEX
  5
6FE
  8
0
 10
214.5546404472972
 20
-383.185486486998
 30
0.0
  0
VERTEX
  5
6FF
  8
0
 10
208.5291131917304
 20
-388.3235479754735
 30
0.0
  0
VERTEX
  5
700
  8
0
 10
202.5755994405727
 20
-393.5570616361939
 30
0.0
  0
VERTEX
  5
701
  8
0
 10
196.6908847778274
 20
-398.871800773723
 30
0.0
  0
VERTEX
  5
702
  8
0
 10
190.8717547874978
 20
-404.2535386926246
 30
0.0
  0
VERTEX
  5
703
  8
0
 10
185.1149950535874
 20
-409.6880486974628
 30
0.0
  0
VERTEX
  5
704
  8
0
 10
179.4173911600994
 20
-415.1611040928014
 30
0.0
  0
VERTEX
  5
705
  8
0
 10
173.7757286910372
 20
-420.6584781832045
 30
0.0
  0
VERTEX
  5
706
  8
0
 10
168.1867932304042
 20
-426.1659442732358
 30
0.0
  0
VERTEX
  5
707
  8
0
 10
162.6473703622036
 20
-431.6692756674593
 30
0.0
  0
VERTEX
  5
708
  8
0
 10
157.1542457411496
 20
-437.1542455997282
 30
0.0
  0
SEQEND
  5
709
  8
0
  0
POLYLINE
  5
23E
  8
0
 66
     1
 10
0.0
 20
0.0
 30
0.0
 40
9.0
 41
9.0
  0
VERTEX
  5
70B
  8
0
 10
-115.3089577651575
 20
-667.1910422348426
 30
0.0
  0
VERTEX
  5
70C
  8
0
 10
114.1986844356612
 20
-437.6834000340238
 30
0.0
  0
SEQEND
  5
70A
  8
0
  0
POLYLINE
  5
243
  8
0
 66
     1
 10
0.0
 20
0.0
 30
0.0
 40
9.0
 41
9.0
  0
VERTEX
  5
70E
  8
0
 10
-94.09575432956109
 20
-688.404245670439
 30
0.0
  0
VERTEX
  5
70F
  8
0
 10
157.1542456704389
 20
-437.1542456704389
 30
0.0
  0
SEQEND
  5
70D
  8
0
  0
POLYLINE
  5
260
  8
0
 62
     1
 66
     1
 10
0.0
 20
0.0
 30
0.0
 40
9.0
 41
9.0
  0
VERTEX
  5
711
  8
0
 62
     1
 10
-267.0
 20
-820.0000000000001
 30
0.0
 42
-0.1238028484785929
  0
VERTEX
  5
712
  8
0
 62
     1
 10
-187.4648845032464
 20
-533.789367955883
 30
0.0
 42
-0.0691127763073553
  0
VERTEX
  5
713
  8
0
 62
     1
 10
-62.13674287652204
 20
-370.7662668107859
 30
0.0
 42
-0.0701970866916302
  0
VERTEX
  5
714
  8
0
 62
     1
 10
75.16939371625745
 20
-269.1286547800509
 30
0.0
 42
-0.0539512432549308
  0
VERTEX
  5
715
  8
0
 62
     1
 10
223.9619686778476
 20
-208.0963967881139
 30
0.0
 42
-0.0359466656857883
  0
VERTEX
  5
716
  8
0
 62
     1
 10
372.7545002975261
 20
-176.4455508654008
 30
0.0
 42
-0.0141537024563059
  0
VERTEX
  5
717
  8
0
 62
     1
 10
460.985531412252
 20
-166.7520577997895
 30
0.0
 42
-0.0115350863253506
  0
VERTEX
  5
718
  8
0
 62
     1
 10
540.0000000000001
 20
-162.1600000000001
 30
0.0
 42
-2.973031032248583
  0
SEQEND
  5
710
  8
0
 62
     1
  0
POLYLINE
  5
280
  8
0
 62
     1
 66
     1
 10
0.0
 20
0.0
 30
0.0
 40
9.0
 41
9.0
  0
VERTEX
  5
71A
  8
0
 62
     1
 10
-187.4648845032464
 20
-533.789367955883
 30
0.0
 42
-0.2040070164741362
  0
VERTEX
  5
71B
  8
0
 62
     1
 10
238.3316229590026
 20
-259.5761739569538
 30
0.0
 42
-0.0382847106684474
  0
VERTEX
  5
71C
  8
0
 62
     1
 10
492.6281942398263
 20
-219.954169748062
 30
0.0
 42
-5.585646230445823
  0
SEQEND
  5
719
  8
0
 62
     1
  0
POLYLINE
  5
285
  8
0
 66
     1
 10
0.0
 20
0.0
 30
0.0
 40
9.0
 41
9.0
  0
VERTEX
  5
71E
  8
0
 10
-236.9999999967772
 20
-819.9981939004503
 30
0.0
 42
-0.2153532445572347
  0
VERTEX
  5
71F
  8
0
 10
-32.77364506543813
 20
-373.9577656002709
 30
0.0
 42
-4.64353347476141
  0
SEQEND
  5
71D
  8
0
  0
POLYLINE
  5
292
  8
0
 66
     1
 10
0.0
 20
0.0
 30
0.0
 40
9.0
 41
9.0
  0
VERTEX
  5
721
  8
0
 10
-189.8766214694718
 20
-590.7934112648165
 30
0.0
 42
-0.1949530679536345
  0
VERTEX
  5
722
  8
0
 10
20.6231139426064
 20
-390.8312766957291
 30
0.0
 42
-0.0576258576000427
  0
VERTEX
  5
723
  8
0
 10
216.8682887101912
 20
-330.066974333559
 30
0.0
 42
-0.0400798375589528
  0
VERTEX
  5
724
  8
0
 10
507.254590311847
 20
-298.4043255681498
 30
0.0
 42
-5.36373272437057
  0
SEQEND
  5
720
  8
0
  0
POLYLINE
  5
297
  8
0
 66
     1
 10
0.0
 20
0.0
 30
0.0
 40
9.0
 41
9.0
  0
VERTEX
  5
726
  8
0
 10
114.198684435661
 20
-437.6834000340239
 30
0.0
 42
-0.1813590903185164
  0
VERTEX
  5
727
  8
0
 10
459.1664172013644
 20
-300.409677380064
 30
0.0
 42
-5.513922672658571
  0
SEQEND
  5
725
  8
0
  0
POLYLINE
  5
2B7
  8
0
 66
     1
 10
0.0
 20
0.0
 30
0.0
 40
9.0
 41
9.0
  0
VERTEX
  5
729
  8
0
 10
157.1542456704389
 20
-437.1542456704389
 30
0.0
 42
-0.0332389462169061
  0
VERTEX
  5
72A
  8
0
 10
226.8345931356445
 20
-373.2526268085254
 30
0.0
 42
-0.035258100502775
  0
VERTEX
  5
72B
  8
0
 10
257.9380984687639
 20
-351.7341405077913
 30
0.0
 42
-0.0573183674742811
  0
VERTEX
  5
72C
  8
0
 10
308.2735129463095
 20
-329.2420531782453
 30
0.0
 42
-6.308787858511886
  0
SEQEND
  5
728
  8
0
  0
POLYLINE
  5
2BC
  8
0
 66
     1
 10
0.0
 20
0.0
 30
0.0
 40
9.0
 41
9.0
  0
VERTEX
  5
72E
  8
0
 10
308.2735129463095
 20
-329.2420531782453
 30
0.0
  0
VERTEX
  5
72F
  8
0
 10
384.2844755445245
 20
-306.0695401174858
 30
0.0
  0
SEQEND
  5
72D
  8
0
  0
DIMENSION
  5
2BF
  8
MASSE
  2
*D4
 10
3860.0
 20
-502.0183489341642
 30
0.0
 11
3360.0
 21
-476.3933489341642
 31
0.0
 70
    32
  3
ISO-25
 13
2860.0
 23
-390.0
 33
0.0
 14
3860.0
 24
-390.0
 34
0.0
1001
ACAD
1000
DSTYLE
1002
{
1070
    41
1040
50.0
1070
   140
1040
50.0
1070
   271
1070
     0
1070
   272
1070
     0
1002
}
  0
DIMENSION
  5
2CB
  8
MASSE
  2
*D5
 10
2860.0
 20
-502.0183489341642
 30
0.0
 11
2360.0
 21
-476.3933489341642
 31
0.0
 70
    32
  3
ISO-25
 13
1860.0
 23
-390.0
 33
0.0
 14
2860.0
 24
-390.625
 34
0.0
1001
ACAD
1000
DSTYLE
1002
{
1070
    41
1040
50.0
1070
   140
1040
50.0
1070
   271
1070
     0
1070
   272
1070
     0
1002
}
  0
DIMENSION
  5
2D7
  8
MASSE
  2
*D6
 10
1860.0
 20
-502.0183489341642
 30
0.0
 11
1360.0
 21
-476.3933489341642
 31
0.0
 70
    32
  3
ISO-25
 13
860.0
 23
-390.0
 33
0.0
 14
1860.0
 24
-390.625
 34
0.0
1001
ACAD
1000
DSTYLE
1002
{
1070
    41
1040
50.0
1070
   140
1040
50.0
1070
   271
1070
     0
1070
   272
1070
     0
1002
}
  0
DIMENSION
  5
2E3
  8
MASSE
  2
*D7
 10
860.0
 20
-503.2683489341642
 30
0.0
 11
562.5
 21
-477.6433489341642
 31
0.0
 70
    32
  3
ISO-25
 13
265.0
 23
-390.0
 33
0.0
 14
860.0
 24
-390.0
 34
0.0
1001
ACAD
1000
DSTYLE
1002
{
1070
    41
1040
50.0
1070
   140
1040
50.0
1070
   271
1070
     0
1070
   272
1070
     0
1002
}
  0
DIMENSION
  5
2EF
  8
MASSE
  2
*D8
 10
112.1218356788451
 20
-993.3679121828036
 30
0.0
 11
86.49683567884509
 21
-814.1839560914018
 31
0.0
 70
    32
 53
90.0
  3
ISO-25
 13
20.0
 23
-635.0
 33
0.0
 14
20.0
 24
-993.3679121828036
 34
0.0
 50
90.0
1001
ACAD
1000
DSTYLE
1002
{
1070
    41
1040
50.0
1070
   140
1040
50.0
1070
   271
1070
     0
1070
   272
1070
     0
1002
}
  0
DIMENSION
  5
2FB
  8
MASSE
  2
*D9
 10
0.0
 20
72.91361317053008
 30
0.0
 11
430.0
 21
98.53861317053008
 31
0.0
 70
    32
  3
ISO-25
 13
860.0
 23
0.0
 33
0.0
 14
0.0
 24
0.0
 34
0.0
1001
ACAD
1000
DSTYLE
1002
{
1070
    41
1040
50.0
1070
   140
1040
50.0
1070
   271
1070
     0
1070
   272
1070
     0
1002
}
  0
DIMENSION
  5
307
  8
MASSE
  2
*D10
 10
-70.07797342825323
 20
-280.0
 30
0.0
 11
-95.70297342825323
 21
-140.0
 31
0.0
 70
    32
 53
90.0
  3
ISO-25
 13
0.0
 23
0.0
 33
0.0
 14
0.0
 24
-280.0
 34
0.0
 50
90.0
1001
ACAD
1000
DSTYLE
1002
{
1070
    41
1040
50.0
1070
   140
1040
50.0
1070
   271
1070
     0
1070
   272
1070
     0
1002
}
  0
DIMENSION
  5
313
  8
MASSE
  2
*D11
 10
-0.625
 20
72.91361317053008
 30
0.0
 11
-185.3125
 21
98.53861317053008
 31
0.0
 70
    32
  3
ISO-25
 13
-370.0
 23
-280.0
 33
0.0
 14
-0.625
 24
-280.0
 34
0.0
1001
ACAD
1000
DSTYLE
1002
{
1070
    41
1040
50.0
1070
   140
1040
50.0
1070
   271
1070
     0
1070
   272
1070
     0
1002
}
  0
DIMENSION
  5
31F
  8
MASSE
  2
*D12
 10
-485.2431668127539
 20
-820.0
 30
0.0
 11
-510.8681668127539
 21
-550.0
 31
0.0
 70
    32
 53
90.0
  3
ISO-25
 13
-370.0
 23
-280.0
 33
0.0
 14
-370.0
 24
-820.0
 34
0.0
 50
90.0
1001
ACAD
1000
DSTYLE
1002
{
1070
    41
1040
50.0
1070
   140
1040
50.0
1070
   271
1070
     0
1070
   272
1070
     0
1002
}
  0
DIMENSION
  5
32B
  8
MASSE
  2
*D13
 10
-570.0476774904777
 20
-1680.0
 30
0.0
 11
-595.6726774904777
 21
-1250.0
 31
0.0
 70
    32
 53
90.0
  3
ISO-25
 13
-370.0
 23
-820.0
 33
0.0
 14
-467.0
 24
-1680.0
 34
0.0
 50
90.0
1001
ACAD
1000
DSTYLE
1002
{
1070
    41
1040
50.0
1070
   140
1040
50.0
1070
   271
1070
     0
1070
   272
1070
     0
1002
}
  0
DIMENSION
  5
337
  8
MASSE
  2
*D14
 10
-467.625
 20
-1793.44526804011
 30
0.0
 11
-419.125
 21
-1767.82026804011
 31
0.0
 70
    32
  3
ISO-25
 13
-370.625
 23
-820.0
 33
0.0
 14
-467.625
 24
-1680.0
 34
0.0
1001
ACAD
1000
DSTYLE
1002
{
1070
    41
1040
50.0
1070
   140
1040
50.0
1070
   271
1070
     0
1070
   272
1070
     0
1002
}
  0
DIMENSION
  5
344
  8
MASSE
  2
*D15
 10
-57.0
 20
-1875.504810394551
 30
0.0
 11
-262.3125
 21
-1849.879810394551
 31
0.0
 70
    32
  3
ISO-25
 13
-467.625
 23
-1680.625
 33
0.0
 14
-57.0
 24
-1680.0
 34
0.0
1001
ACAD
1000
DSTYLE
1002
{
1070
    41
1040
50.0
1070
   140
1040
50.0
1070
   271
1070
     0
1070
   272
1070
     0
1002
}
  0
DIMENSION
  5
350
  8
MASSE
  2
*D16
 10
115.7315035428398
 20
-729.8638849113529
 30
0.0
 11
219.776265805111
 21
-589.2674296678531
 31
0.0
 70
    33
 53
225.0731746466944
  3
ISO-25
 13
265.0
 23
-390.0
 33
0.0
 14
20.625
 24
-635.0
 34
0.0
1001
ACAD
1000
DSTYLE
1002
{
1070
    41
1040
50.0
1070
   140
1040
50.0
1070
   271
1070
     0
1070
   272
1070
     0
1002
}
  0
DIMENSION
  5
35C
  8
MASSE
  2
*D17
 10
350.1182846999524
 20
-1564.875542988814
 30
0.0
 11
159.7413135354949
 21
-1645.513062987244
 31
0.0
 70
    33
 53
30.07558198294868
  3
ISO-25
 13
-57.0
 23
-1680.625
 33
0.0
 14
298.0704155516198
 24
-1475.0
 34
0.0
1001
ACAD
1000
DSTYLE
1002
{
1070
    41
1040
50.0
1070
   140
1040
50.0
1070
   271
1070
     0
1070
   272
1070
     0
1002
}
  0
DIMENSION
  5
368
  8
MASSE
  2
*D18
 10
420.3580389411725
 20
-1404.555896821784
 30
0.0
 11
303.8396984275107
 21
-1150.94896946099
 31
0.0
 70
    33
 53
299.944205361927
  3
ISO-25
 13
20.625
 23
-993.3679121828036
 33
0.0
 14
298.0704155516198
 24
-1475.0
 34
0.0
1001
ACAD
1000
DSTYLE
1002
{
1070
    41
1040
50.0
1070
   140
1040
50.0
1070
   271
1070
     0
1070
   272
1070
     0
1002
}
  0
DIMENSION
  5
374
  8
MASSE
  2
*D19
 10
3979.500528432168
 20
-390.0
 30
0.0
 11
3953.875528432168
 21
-195.0
 31
0.0
 70
    32
 53
90.0
  3
ISO-25
 13
3860.0
 23
0.0
 33
0.0
 14
3860.0
 24
-390.0
 34
0.0
 50
90.0
1001
ACAD
1000
DSTYLE
1002
{
1070
    41
1040
50.0
1070
   140
1040
50.0
1070
   271
1070
     0
1070
   272
1070
     0
1002
}
  0
DIMENSION
  5
380
  8
MASSE
  2
*D20
 10
2573.050048040328
 20
103.5753917575735
 30
0.0
 11
1744.452590047476
 21
97.73218292971204
 31
0.0
 70
    33
 53
2.176192550525312
  3
ISO-25
 13
924.9531207641098
 23
-147.5317814109621
 33
0.0
 14
2580.201941323845
 24
-84.63232622969287
 34
0.0
1001
ACAD
1000
DSTYLE
1002
{
1070
    41
1040
50.0
1070
   140
1040
50.0
1070
   271
1070
     0
1070
   272
1070
     0
1002
}
  0
DIMENSION
  5
38C
  8
MASSE
  2
*D21
 10
2856.152843269324
 20
27.24096659673828
 30
0.0
 11
3015.979273290982
 21
58.95786551342788
 31
0.0
 70
    33
 53
182.1761925505253
  3
ISO-25
 13
3181.598955469287
 23
-61.77923969216706
 33
0.0
 14
2860.0
 24
-74.00000000000001
 34
0.0
1001
ACAD
1000
DSTYLE
1002
{
1070
    41
1040
50.0
1070
   140
1040
50.0
1070
   271
1070
     0
1070
   272
1070
     0
1002
}
  0
DIMENSION
  5
398
  8
MASSE
  2
*D22
 10
3195.061505781986
 20
-383.3201157862653
 30
0.0
 11
3025.247187511328
 21
-316.4436465838539
 31
0.0
 70
    33
 53
346.5756783527303
  3
ISO-25
 13
2860.0
 23
-230.432402781851
 33
0.0
 14
3211.526878514143
 24
-314.3356236553165
 34
0.0
1001
ACAD
1000
DSTYLE
1002
{
1070
    41
1040
50.0
1070
   140
1040
50.0
1070
   271
1070
     0
1070
   272
1070
     0
1002
}
  0
DIMENSION
  5
3A4
  8
MASSE
  2
*D23
 10
2353.243835076184
 20
30.97433687758537
 30
0.0
 11
1746.768379123109
 21
35.68656250630609
 31
0.0
 70
    33
 53
1.976356966030644
  3
ISO-25
 13
1145.539914551706
 23
-111.6543195808877
 33
0.0
 14
2356.723362770971
 24
-69.85925725106873
 34
0.0
1001
ACAD
1000
DSTYLE
1002
{
1070
    41
1040
50.0
1070
   140
1040
50.0
1070
   271
1070
     0
1070
   272
1070
     0
1002
}
  0
POLYLINE
  5
3E6
  8
0
 62
     1
 66
     1
 10
0.0
 20
0.0
 30
0.0
 40
9.0
 41
9.0
  0
VERTEX
  5
731
  8
0
 62
     1
 10
604.1871370885237
 20
-213.0889021594812
 30
0.0
  0
VERTEX
  5
732
  8
0
 62
     1
 10
491.3898852298822
 20
-220.0599092093147
 30
0.0
  0
SEQEND
  5
730
  8
0
 62
     1
  0
POLYLINE
  5
3EA
  8
0
 62
     1
 66
     1
 10
0.0
 20
0.0
 30
0.0
 40
9.0
 41
9.0
  0
VERTEX
  5
734
  8
0
 62
     1
 10
924.9531207641098
 20
-147.5317814109621
 30
0.0
  0
VERTEX
  5
735
  8
0
 62
     1
 10
1047.864410825421
 20
-142.8611523886293
 30
0.0
  0
SEQEND
  5
733
  8
0
 62
     1
  0
POLYLINE
  5
3EB
  8
0
 62
     1
 66
     1
 10
0.0
 20
0.0
 30
0.0
 40
9.0
 41
9.0
  0
VERTEX
  5
737
  8
0
 62
     1
 10
1047.389753404452
 20
-130.3701676263009
 30
0.0
  0
VERTEX
  5
738
  8
0
 62
     1
 10
977.0245160337063
 20
-145.5530683907161
 30
0.0
  0
SEQEND
  5
736
  8
0
 62
     1
  0
POLYLINE
  5
406
  8
0
 62
     1
 66
     1
 10
0.0
 20
0.0
 30
0.0
 40
9.0
 41
9.0
  0
VERTEX
  5
73A
  8
0
 62
     1
 10
2805.039667045755
 20
-76.08849265226131
 30
0.0
  0
VERTEX
  5
73B
  8
0
 62
     1
 10
2682.128376984445
 20
-80.75912167459408
 30
0.0
  0
SEQEND
  5
739
  8
0
 62
     1
  0
POLYLINE
  5
407
  8
0
 62
     1
 66
     1
 10
0.0
 20
0.0
 30
0.0
 40
9.0
 41
9.0
  0
VERTEX
  5
73D
  8
0
 62
     1
 10
2682.603034405413
 20
-93.25010643692245
 30
0.0
  0
VERTEX
  5
73E
  8
0
 62
     1
 10
2752.968271776159
 20
-78.0672056725072
 30
0.0
  0
SEQEND
  5
73C
  8
0
 62
     1
  0
POLYLINE
  5
408
  8
0
 62
     1
 66
     1
 10
0.0
 20
0.0
 30
0.0
 40
9.0
 41
9.0
  0
VERTEX
  5
740
  8
0
 62
     1
 10
2655.914408877578
 20
-111.7964609961057
 30
0.0
  0
VERTEX
  5
741
  8
0
 62
     1
 10
2583.981694522885
 20
-114.5299041415899
 30
0.0
  0
SEQEND
  5
73F
  8
0
 62
     1
  0
POLYLINE
  5
409
  8
0
 62
     1
 66
     1
 10
0.0
 20
0.0
 30
0.0
 40
9.0
 41
9.0
  0
VERTEX
  5
743
  8
0
 62
     1
 10
2533.044980661315
 20
-125.520658962057
 30
0.0
  0
VERTEX
  5
744
  8
0
 62
     1
 10
2653.277925828139
 20
-99.57766575557487
 30
0.0
  0
SEQEND
  5
742
  8
0
 62
     1
  0
POLYLINE
  5
40A
  8
0
 62
     1
 66
     1
 10
0.0
 20
0.0
 30
0.0
 40
9.0
 41
9.0
  0
VERTEX
  5
746
  8
0
 62
     1
 10
2580.201941323845
 20
-84.63232622969882
 30
0.0
  0
VERTEX
  5
747
  8
0
 62
     1
 10
2457.290651262533
 20
-89.30295525202568
 30
0.0
  0
SEQEND
  5
745
  8
0
 62
     1
  0
POLYLINE
  5
40B
  8
0
 62
     1
 66
     1
 10
0.0
 20
0.0
 30
0.0
 40
9.0
 41
9.0
  0
VERTEX
  5
749
  8
0
 62
     1
 10
2456.815993841565
 20
-76.81197048969732
 30
0.0
  0
VERTEX
  5
74A
  8
0
 62
     1
 10
2528.130546054248
 20
-86.61103924994227
 30
0.0
  0
SEQEND
  5
748
  8
0
 62
     1
  0
POLYLINE
  5
40C
  8
0
 62
     1
 66
     1
 10
0.0
 20
0.0
 30
0.0
 40
9.0
 41
9.0
  0
VERTEX
  5
74C
  8
0
 62
     1
 10
2380.850443867777
 20
-145.5724162466607
 30
0.0
  0
VERTEX
  5
74D
  8
0
 62
     1
 10
2452.78315822247
 20
-142.8389731011766
 30
0.0
  0
SEQEND
  5
74B
  8
0
 62
     1
  0
POLYLINE
  5
40D
  8
0
 62
     1
 66
     1
 10
0.0
 20
0.0
 30
0.0
 40
9.0
 41
9.0
  0
VERTEX
  5
74F
  8
0
 62
     1
 10
2503.71987208404
 20
-131.8482182807095
 30
0.0
  0
VERTEX
  5
750
  8
0
 62
     1
 10
2383.486926917216
 20
-157.7912114871916
 30
0.0
  0
SEQEND
  5
74E
  8
0
 62
     1
  0
POLYLINE
  5
417
  8
0
 62
     1
 66
     1
 10
0.0
 20
0.0
 30
0.0
 40
9.0
 41
9.0
  0
VERTEX
  5
752
  8
0
 62
     1
 10
860.0000000000022
 20
-150.0
 30
0.0
  0
VERTEX
  5
753
  8
0
 62
     1
 10
924.9531207641098
 20
-147.5317814109621
 30
0.0
  0
SEQEND
  5
751
  8
0
 62
     1
  0
POLYLINE
  5
41C
  8
0
 62
     1
 66
     1
 10
0.0
 20
0.0
 30
0.0
 40
9.0
 41
9.0
  0
VERTEX
  5
755
  8
0
 62
     1
 10
1047.864410825421
 20
-142.8611523886293
 30
0.0
  0
VERTEX
  5
756
  8
0
 62
     1
 10
2457.290651262533
 20
-89.30295525202568
 30
0.0
  0
SEQEND
  5
754
  8
0
 62
     1
  0
POLYLINE
  5
421
  8
0
 62
     1
 66
     1
 10
0.0
 20
0.0
 30
0.0
 40
9.0
 41
9.0
  0
VERTEX
  5
758
  8
0
 62
     1
 10
2580.201941323845
 20
-84.63232622969882
 30
0.0
  0
VERTEX
  5
759
  8
0
 62
     1
 10
2682.128376984445
 20
-80.75912167459408
 30
0.0
  0
SEQEND
  5
757
  8
0
 62
     1
  0
POLYLINE
  5
426
  8
0
 62
     1
 66
     1
 10
0.0
 20
0.0
 30
0.0
 40
9.0
 41
9.0
  0
VERTEX
  5
75B
  8
0
 62
     1
 10
2805.039667045755
 20
-76.08849265226131
 30
0.0
  0
VERTEX
  5
75C
  8
0
 62
     1
 10
3181.598955469287
 20
-61.77923969216706
 30
0.0
  0
SEQEND
  5
75A
  8
0
 62
     1
  0
TEXT
  5
427
  8
0
 62
     1
 10
128.3448036032773
 20
-69.66566215868207
 30
0.0
 40
50.0
  1
mit Fahrdraht
  0
INSERT
  5
45D
  8
0
  2
WEICHE123
 10
3125.470631744779
 20
-221.989840792361
 30
0.0
 50
157.1761925505118
  0
POLYLINE
  5
470
  8
0
 66
     1
 10
0.0
 20
0.0
 30
0.0
 40
9.0
 41
9.0
  0
VERTEX
  5
75E
  8
0
 10
2769.20760883012
 20
-144.3012330120746
 30
0.0
  0
VERTEX
  5
75F
  8
0
 10
2798.323997404225
 20
-147.1642142664257
 30
0.0
  0
VERTEX
  5
760
  8
0
 10
2830.36324197145
 20
-150.3417914828782
 30
0.0
  0
VERTEX
  5
761
  8
0
 10
2860.0
 20
-156.2825358428061
 30
0.0
  0
VERTEX
  5
762
  8
0
 10
3007.198462922467
 20
-185.7887469322346
 30
0.0
  0
SEQEND
  5
75D
  8
0
  0
POLYLINE
  5
477
  8
0
 66
     1
 10
0.0
 20
0.0
 30
0.0
 40
9.0
 41
9.0
  0
VERTEX
  5
764
  8
0
 10
1129.805270866293
 20
-274.7473997070809
 30
0.0
  0
VERTEX
  5
765
  8
0
 10
2610.172539131212
 20
-218.4934435130139
 30
0.0
  0
SEQEND
  5
763
  8
0
  0
POLYLINE
  5
480
  8
0
 62
     1
 66
     1
 10
0.0
 20
0.0
 30
0.0
 40
9.0
 41
9.0
  0
VERTEX
  5
767
  8
0
 62
     1
 10
508.1133321475492
 20
-280.9943427360086
 30
0.0
  0
VERTEX
  5
768
  8
0
 62
     1
 10
607.1824684104737
 20
-294.6070662004034
 30
0.0
  0
VERTEX
  5
769
  8
0
 62
     1
 10
707.110346509101
 20
-290.8098068326572
 30
0.0
  0
SEQEND
  5
766
  8
0
 62
     1
  0
POLYLINE
  5
489
  8
0
 66
     1
 10
0.0
 20
0.0
 30
0.0
 40
9.0
 41
9.0
  0
VERTEX
  5
76B
  8
0
 10
507.254590311847
 20
-298.4043255681498
 30
0.0
  0
VERTEX
  5
76C
  8
0
 10
607.1824684104737
 20
-294.6070662004034
 30
0.0
  0
VERTEX
  5
76D
  8
0
 10
706.2516046733982
 20
-308.2197896647984
 30
0.0
  0
SEQEND
  5
76A
  8
0
  0
POLYLINE
  5
490
  8
0
 62
     1
 66
     1
 10
0.0
 20
0.0
 30
0.0
 40
9.0
 41
9.0
  0
VERTEX
  5
76F
  8
0
 62
     1
 10
707.110346509101
 20
-290.8098068326572
 30
0.0
  0
VERTEX
  5
770
  8
0
 62
     1
 10
830.0216365704118
 20
-286.1391778103209
 30
0.0
  0
SEQEND
  5
76E
  8
0
 62
     1
  0
POLYLINE
  5
495
  8
0
 66
     1
 10
0.0
 20
0.0
 30
0.0
 40
9.0
 41
9.0
  0
VERTEX
  5
772
  8
0
 10
830.5124699737997
 20
-298.63265921791
 30
0.0
  0
VERTEX
  5
773
  8
0
 10
768.5659915397564
 20
-288.474492321489
 30
0.0
  0
SEQEND
  5
771
  8
0
  0
POLYLINE
  5
49A
  8
0
 62
     1
 66
     1
 10
0.0
 20
0.0
 30
0.0
 40
9.0
 41
9.0
  0
VERTEX
  5
775
  8
0
 62
     1
 10
860.0
 20
-285.0
 30
0.0
  0
VERTEX
  5
776
  8
0
 62
     1
 10
1129.805270866293
 20
-274.7473997070809
 30
0.0
  0
SEQEND
  5
774
  8
0
 62
     1
  0
POLYLINE
  5
49F
  8
0
 66
     1
 10
0.0
 20
0.0
 30
0.0
 40
9.0
 41
9.0
  0
VERTEX
  5
778
  8
0
 10
2987.846354648567
 20
-164.0706196658984
 30
0.0
  0
VERTEX
  5
779
  8
0
 10
2930.654754163484
 20
-138.2322599278158
 30
0.0
  0
SEQEND
  5
777
  8
0
  0
POLYLINE
  5
4A4
  8
0
 62
     1
 66
     1
 10
0.0
 20
0.0
 30
0.0
 40
9.0
 41
9.0
  0
VERTEX
  5
77B
  8
0
 62
     1
 10
3222.390760964553
 20
-217.460275283637
 30
0.0
  0
VERTEX
  5
77C
  8
0
 62
     1
 10
3165.199160479468
 20
-191.6219155455559
 30
0.0
  0
SEQEND
  5
77A
  8
0
 62
     1
  0
POLYLINE
  5
4AC
  8
0
 66
     1
 10
0.0
 20
0.0
 30
0.0
 40
9.0
 41
9.0
  0
VERTEX
  5
77E
  8
0
 10
3235.645694933287
 20
-170.9449468256031
 30
0.0
  0
VERTEX
  5
77F
  8
0
 10
3764.291802241047
 20
-291.2814179926487
 30
0.0
  0
SEQEND
  5
77D
  8
0
  0
POLYLINE
  5
4B9
  8
0
 66
     1
 10
0.0
 20
0.0
 30
0.0
 40
9.0
 41
9.0
  0
VERTEX
  5
781
  8
0
 10
3050.50992239262
 20
-165.5150500403516
 30
0.0
  0
VERTEX
  5
782
  8
0
 10
3113.104841593523
 20
-163.1364363324443
 30
0.0
  0
VERTEX
  5
783
  8
0
 10
3177.327882395378
 20
-163.3664918014322
 30
0.0
  0
VERTEX
  5
784
  8
0
 10
3235.645694933287
 20
-170.9449468256031
 30
0.0
  0
SEQEND
  5
780
  8
0
  0
LINE
  5
4E1
  8
0
 10
3860.000000000003
 20
-225.0
 30
0.0
 11
4060.000000000003
 21
-225.0
 31
0.0
  0
LINE
  5
4E2
  8
0
 10
4060.000000000003
 20
-225.0
 30
0.0
 11
4060.000000000003
 21
175.0
 31
0.0
  0
LINE
  5
4E3
  8
0
 10
4060.000000000003
 20
175.0
 30
0.0
 11
4010.000000000003
 21
175.0
 31
0.0
  0
LINE
  5
4E4
  8
0
 10
4010.000000000003
 20
175.0
 30
0.0
 11
3860.0
 21
25.0
 31
0.0
  0
LINE
  5
4E5
  8
0
 10
3860.0
 20
25.0
 30
0.0
 11
3860.0
 21
0.0
 31
0.0
  0
DIMENSION
  5
4E6
  8
MASSE
  2
*D24
 10
4060.000000000003
 20
-501.645874494979
 30
0.0
 11
3960.000000000001
 21
-476.020874494979
 31
0.0
 70
    32
  3
ISO-25
 13
3860.0
 23
-390.0
 33
0.0
 14
4060.000000000003
 24
-225.0
 34
0.0
1001
ACAD
1000
DSTYLE
1002
{
1070
    41
1040
50.0
1070
   140
1040
50.0
1070
   271
1070
     0
1070
   272
1070
     0
1002
}
  0
POLYLINE
  5
4F9
  8
0
 66
     1
 10
0.0
 20
0.0
 30
0.0
 40
9.0
 41
9.0
  0
VERTEX
  5
786
  8
0
 10
3929.182161953802
 20
-25.0
 30
0.0
  0
VERTEX
  5
787
  8
0
 10
4060.000000000003
 20
-25.0
 30
0.0
  0
SEQEND
  5
785
  8
0
  0
ARC
  5
4FA
  8
0
 10
3950.443063841636
 20
-25.0
 30
0.0
 40
21.26090188783444
 50
48.6479895935646
 51
316.5571348114385
  0
POLYLINE
  5
507
  8
0
 66
     1
 10
0.0
 20
0.0
 30
0.0
 40
9.0
 41
9.0
  0
VERTEX
  5
789
  8
0
 10
3181.575222598239
 20
-61.15469045405065
 30
0.0
  0
VERTEX
  5
78A
  8
0
 10
3266.517270039764
 20
-49.07178022653999
 30
0.0
  0
VERTEX
  5
78B
  8
0
 10
3613.955810214471
 20
-24.99744675355627
 30
0.0
  0
VERTEX
  5
78C
  8
0
 10
3860.000000000001
 20
-25.0
 30
0.0
  0
SEQEND
  5
788
  8
0
  0
POLYLINE
  5
516
  8
0
 66
     1
 10
0.0
 20
0.0
 30
0.0
 40
9.0
 41
9.0
  0
VERTEX
  5
78E
  8
0
 10
3232.062294102774
 20
-206.8420664937499
 30
0.0
  0
VERTEX
  5
78F
  8
0
 10
3652.62362543472
 20
-302.5750451768564
 30
0.0
  0
SEQEND
  5
78D
  8
0
  0
POLYLINE
  5
51B
  8
0
 62
     1
 66
     1
 10
0.0
 20
0.0
 30
0.0
 40
9.0
 41
9.0
  0
VERTEX
  5
791
  8
0
 62
     1
 10
2870.688734109311
 20
-124.5821156478984
 30
0.0
  0
VERTEX
  5
792
  8
0
 62
     1
 10
3165.199160479468
 20
-191.6219155455559
 30
0.0
  0
SEQEND
  5
790
  8
0
 62
     1
  0
POLYLINE
  5
520
  8
0
 66
     1
 10
0.0
 20
0.0
 30
0.0
 40
9.0
 41
9.0
  0
VERTEX
  5
794
  8
0
 10
3232.062294102774
 20
-206.8420664937499
 30
0.0
  0
VERTEX
  5
795
  8
0
 10
3165.199160479468
 20
-191.6219155455559
 30
0.0
  0
SEQEND
  5
793
  8
0
  0
DIMENSION
  5
558
  8
MASSE
  2
*D25
 10
4146.159910810781
 20
175.0
 30
0.0
 11
4120.534910810781
 21
-25.0
 31
0.0
 70
    32
 53
90.0
  3
ISO-25
 13
4060.000000000003
 23
-225.0
 33
0.0
 14
4060.000000000003
 24
175.0
 34
0.0
 50
90.0
1001
ACAD
1000
DSTYLE
1002
{
1070
    41
1040
50.0
1070
   140
1040
50.0
1070
   271
1070
     0
1070
   272
1070
     0
1002
}
  0
ENDSEC
  0
EOF
